<?xml version="1.0" standalone="no"?><!DOCTYPE svg PUBLIC "-//W3C//DTD SVG 1.1//EN" "http://www.w3.org/Graphics/SVG/1.1/DTD/svg11.dtd" ><svg xmlns="http://www.w3.org/2000/svg"><metadata>Generated by Glyphter</metadata><defs><font id="zkprime" horiz-adv-x="0"><font-face units-per-em="1024" ascent="1024" descent="0" font-family="zkprime" font-weight="normal" /><missing-glyph horiz-adv-x="0" /><glyph unicode="&#x0041;" d="M1008.198,631.739C953.88,863.635,753.321,1022.411,513.068,1024.5C481.731,1022.411,446.215,1020.322,414.878,1014.054C78.524,947.201,-94.875,575.332,68.079,274.494C74.346,266.137,74.346,257.781,72.257,249.424C49.276,172.125,26.295,92.738,5.404,13.35C1.226,-1.274,1.226,-1.274,15.85,2.904C97.327,25.885,178.804,46.776,262.37,67.668C268.637,69.757,274.905,69.757,281.172,67.668C387.719,13.35,498.444,-1.274,615.437,19.617C891.205,71.846,1075.051,355.971,1008.198,631.739C1008.198,631.739,1008.198,631.739,1008.198,631.739M584.099,101.094C559.03,96.916,536.049,94.827,525.603,96.916C435.77,96.916,362.649,117.807,295.796,155.412C285.35,161.68,279.083,163.769,270.726,159.59C224.765,149.145,180.893,136.61,134.931,124.075C126.575,121.986,124.486,124.075,126.575,132.431C139.11,174.214,149.555,218.087,164.18,261.959C166.269,274.494,166.269,282.85,157.912,291.207C65.989,441.626,70.168,625.472,172.536,765.445C279.083,909.597,427.413,968.093,602.902,930.488C776.302,894.972,887.027,782.158,924.631,610.848C981.039,372.684,822.263,138.699,584.099,101.094C584.099,101.094,584.099,101.094,584.099,101.094M646.774,274.494C630.061,272.405,611.258,276.583,594.545,280.761C477.553,314.188,389.808,385.219,318.777,483.409C291.618,518.925,266.548,558.619,260.281,602.491C249.835,654.72,266.548,702.77,306.242,738.286C318.777,750.821,358.471,757.088,373.095,748.732C377.273,744.553,381.452,740.375,383.541,736.197C398.165,700.681,412.789,667.255,427.413,631.739C429.502,623.383,429.502,617.115,425.324,610.848C416.967,594.134,406.521,581.599,393.986,569.065C383.541,560.708,383.541,552.351,391.897,541.906C433.68,472.963,490.088,422.824,565.297,393.576C575.743,389.397,584.099,391.486,592.456,399.843C604.991,414.467,617.526,431.18,630.061,447.894C638.417,458.339,646.774,460.429,659.309,454.161C684.379,443.715,709.449,431.18,732.429,420.735C738.697,416.556,742.875,414.467,749.143,412.378C774.212,399.843,774.212,397.754,772.123,370.595C767.945,318.366,728.251,291.207,682.29,276.583C667.666,272.405,657.22,272.405,646.774,274.494C646.774,274.494,646.774,274.494,646.774,274.494" class="icon-whatsapp"/><glyph unicode="&#x0042;" d="M512.664,775.732C310.602,776.046,183.981,557.516,284.73,382.37C385.479,207.224,638.052,206.827,739.344,381.659C762.52,421.637,774.724,467.028,774.724,513.254C774.62,658.014,657.424,775.377,512.664,775.732C512.664,775.732,512.664,775.732,512.664,775.732M512.664,342.727C381.383,342.727,299.338,484.833,364.978,598.518C430.619,712.202,594.709,712.202,660.35,598.518C675.313,572.604,683.191,543.18,683.191,513.254C683.317,419.025,606.893,342.601,512.664,342.727C512.664,342.727,512.664,342.727,512.664,342.727M723.942,785.345C723.942,738.2,774.975,708.754,815.789,732.327C834.743,743.257,846.404,763.465,846.404,785.345C846.404,832.491,795.372,861.936,754.558,838.363C735.604,827.434,723.942,807.225,723.942,785.345M1020.693,720.98C1019.962,763.82,1011.895,806.243,996.87,846.367C970.476,915.519,916.036,970.271,847.031,997.042C807.43,1011.879,765.592,1019.946,723.316,1020.865C668.563,1023.373,651.427,1024,512.664,1024C373.902,1024,356.347,1024,302.013,1020.865C259.736,1019.946,217.898,1011.879,178.297,997.042C109.542,970.564,55.145,916.313,28.458,847.621C13.579,807.873,5.512,765.91,4.635,723.487C2.127,668.735,1.5,651.598,1.5,512C1.5,372.402,1.5,356.519,4.635,303.02C5.366,260.18,13.433,217.757,28.458,177.633C55.229,109.108,109.626,55.024,178.297,28.63C217.94,13.208,259.903,4.598,302.431,3.135C357.183,0.627,374.32,0,513.082,0C651.844,0,669.399,0,723.733,3.135C765.885,4.117,807.555,12.163,847.031,26.958C915.639,53.541,969.87,107.771,996.452,176.379C1011.331,216.127,1019.398,258.09,1020.276,300.513C1022.783,355.265,1023.41,372.402,1023.41,511.164C1023.41,649.927,1023.828,667.481,1020.693,720.98C1020.693,720.98,1020.693,720.98,1020.693,720.98M928.324,306.364C928.324,306.364,928.324,306.364,928.324,306.364C927.698,273.617,921.407,241.246,909.725,210.651C892.589,165.93,857.271,130.612,812.55,113.476C782.248,102.17,750.232,96.152,717.882,95.713C663.965,93.414,648.71,92.787,510.365,92.787C372.021,92.787,357.81,92.787,302.849,95.713C270.499,96.152,238.483,102.17,208.181,113.476C163.355,130.591,127.891,165.909,110.587,210.651C99.344,240.974,93.409,272.99,93.033,305.319C90.525,359.236,89.898,374.491,89.898,512.836C89.898,651.18,89.898,665.391,93.033,720.353C93.284,753.037,99.219,785.429,110.587,816.065C127.703,861.017,163.334,896.418,208.39,913.241C238.943,924.275,271.188,929.938,303.684,929.959C357.601,932.258,372.857,933.094,511.201,933.094C649.546,933.094,663.756,933.094,718.718,929.959C751.068,929.52,783.084,923.502,813.386,912.196C857.585,895.101,892.547,860.223,909.725,816.065C921.156,785.638,927.238,753.476,927.698,720.98C929.996,667.063,930.832,651.807,930.832,513.463C930.832,375.118,930.623,360.699,928.324,306.364C928.324,306.364,928.324,306.364,928.324,306.364" class="icon-instagram"/><glyph unicode="&#x0043;" d="M867.382,862.4C631.573,875.766,395.201,875.766,159.393,862.4C31.997,855.299,14.454,754.844,7.353,657.522C11.112,512.791,-55.092,172.163,158.349,162.556C394.512,149.148,631.218,149.148,867.382,162.556C992.689,169.657,1011.277,270.112,1018.378,367.434C1013.574,511.956,1079.778,851.749,867.382,862.4C867.382,862.4,867.382,862.4,867.382,862.4M407.92,379.756C407.92,379.756,407.92,666.293,407.92,666.293C407.92,666.293,681.509,523.025,681.509,523.025C681.509,523.025,407.92,379.756,407.92,379.756" class="icon-youtube"/><glyph unicode="&#x0044;" d="M512,800C321.184,800,160,697.408,160,576C160,567.168,167.168,560,176,560C184.832,560,192,567.168,192,576C192,678.272,341.536,768,512,768C520.8,768,528,775.168,528,784C528,792.832,520.832,800,512,800C512,800,512,800,512,800M512,960C229.216,960,0,788.064,0,576C0,443.936,88.928,327.488,224.256,258.368C224.256,257.504,224,256.928,224,256C224,198.624,181.152,136.864,162.304,104.448C162.336,104.448,162.368,104.448,162.368,104.448C160.864,100.928,160,97.056,160,92.992C160,76.992,172.96,64,188.992,64C192,64,197.28,64.8,197.152,64.448C297.152,80.832,391.36,172.704,413.248,199.328C445.216,194.624,478.176,192,512,192C794.72,192,1024,363.936,1024,576C1024,788.064,794.752,960,512,960C512,960,512,960,512,960M512,256C482.656,256,452.544,258.24,422.528,262.624C419.424,263.136,416.32,263.296,413.248,263.296C394.24,263.296,376.032,254.848,363.776,239.936C350.08,223.264,311.104,186.048,265.056,158.688C277.536,187.328,287.296,219.424,287.968,252.512C288.16,254.56,288.256,256.64,288.256,258.4C288.256,282.464,274.784,304.448,253.376,315.392C134.784,375.936,64,473.376,64,576C64,752.448,264.96,896,512,896C758.976,896,960,752.448,960,576C960,399.552,759.008,256,512,256C512,256,512,256,512,256" class="icon-message"/><glyph unicode="&#x0045;" d="M1009.837,1018.88C1004.525,1022.304,998.478,1024,992.462,1024C986.286,1024,980.078,1022.24,974.702,1018.624C974.702,1018.624,14.732,378.644,14.732,378.644C4.845,372.084,-0.595,360.533,0.685,348.693C1.901,336.885,9.581,326.678,20.62,322.326C20.62,322.326,270.98,222.137,270.98,222.137C270.98,222.137,388.705,16.127,388.705,16.127C394.337,6.24,404.8,0.128,416.128,0C416.256,0,416.352,0,416.48,0C427.712,0,438.143,5.952,443.903,15.552C443.903,15.552,510.365,126.364,510.365,126.364C510.365,126.364,820.595,2.304,820.595,2.304C824.403,0.768,828.403,0.032,832.467,0.032C837.907,0.032,843.283,1.408,848.146,4.16C856.594,8.896,862.386,17.215,864.018,26.783C864.018,26.783,1024.013,986.753,1024.013,986.753C1026.093,999.329,1020.525,1011.936,1009.837,1018.88C1009.837,1018.88,1009.837,1018.88,1009.837,1018.88M100.842,359.157C100.842,359.157,842.419,853.573,842.419,853.573C842.419,853.573,303.235,276.407,303.235,276.407C300.387,278.103,297.86,280.343,294.724,281.591C294.724,281.591,100.842,359.157,100.842,359.157C100.842,359.157,100.842,359.157,100.842,359.157M326.531,253.912C326.467,254.04,326.371,254.104,326.307,254.232C326.307,254.232,932.464,903.012,932.464,903.012C932.464,903.012,415.712,97.853,415.712,97.853C415.712,97.853,326.531,253.912,326.531,253.912C326.531,253.912,326.531,253.912,326.531,253.912M807.412,76.542C807.412,76.542,534.108,185.85,534.108,185.85C527.612,188.41,520.861,189.274,514.173,189.658C514.173,189.658,935.024,842.054,935.024,842.054C935.024,842.054,807.412,76.542,807.412,76.542C807.412,76.542,807.412,76.542,807.412,76.542" class="icon-telegram"/><glyph unicode="&#x0046;" d="M640.48,1024C428.423,1024,256.492,852.069,256.492,640.012C256.492,575.182,272.715,514.16,301.131,460.562C301.131,460.562,34.131,193.626,34.131,193.626C34.131,193.626,34.355,193.434,34.355,193.434C13.492,172.923,0.5,144.507,0.5,112.924C0.5,50.558,51.058,0,113.424,0C144.943,0,173.391,12.992,193.902,33.887C193.902,33.887,193.838,33.951,193.838,33.951C193.838,33.951,460.742,300.823,460.742,300.823C514.372,272.311,575.49,256.024,640.48,256.024C852.537,256.024,1024.468,427.955,1024.468,640.012C1024.468,852.069,852.537,1024,640.48,1024C640.48,1024,640.48,1024,640.48,1024M153.935,73.886C143.632,63.198,129.36,56.51,113.424,56.51C82.225,56.51,56.946,81.757,56.946,112.956C56.946,128.892,63.666,143.132,74.322,153.467C74.322,153.467,74.034,153.723,74.034,153.723C74.034,153.723,332.138,411.827,332.138,411.827C354.697,381.396,381.576,354.517,411.943,331.894C411.943,331.894,153.935,73.886,153.935,73.886C153.935,73.886,153.935,73.886,153.935,73.886M640.48,319.99C463.782,319.99,320.49,463.314,320.49,639.98C320.49,816.678,463.782,959.97,640.48,959.97C817.146,959.97,960.47,816.678,960.47,639.98C960.47,463.314,817.146,319.99,640.48,319.99C640.48,319.99,640.48,319.99,640.48,319.99M640.48,864.005C516.74,864.005,416.487,763.72,416.487,640.012C416.487,631.18,423.655,624.012,432.487,624.012C441.318,624.012,448.486,631.18,448.486,640.012C448.486,746.025,534.435,832.006,640.48,832.006C649.28,832.006,656.48,839.174,656.48,848.005C656.48,856.837,649.28,864.005,640.48,864.005C640.48,864.005,640.48,864.005,640.48,864.005" class="icon-search"/><glyph unicode="&#x0047;" d="M959.36,805.824C956.288,856.064,914.976,895.936,864,895.936C864,895.936,768,895.936,768,895.936C768,895.936,768,927.936,768,927.936C768,927.936,768,928,768,928C768,981.024,724.992,1024,672,1024C672,1024,352,1024,352,1024C298.976,1024,256,981.024,256,928C256,928,256,927.968,256,927.968C256,927.968,256,895.968,256,895.968C256,895.968,160,895.968,160,895.968C108.96,895.968,67.68,856.096,64.608,805.856C64.608,805.856,64,805.856,64,805.856C64,805.856,64,768,64,768C64,768,64,736,64,736C64,700.672,92.672,672,128,672C128,672,128,672,128,672C128,672,128,128,128,128C128,57.312,185.312,0,256,0C256,0,768,0,768,0C838.688,0,896,57.312,896,128C896,128,896,672,896,672C896,672,896,672,896,672C931.328,672,960,700.672,960,736C960,736,960,768,960,768C960,768,960,805.824,960,805.824C960,805.824,959.36,805.824,959.36,805.824C959.36,805.824,959.36,805.824,959.36,805.824M320,927.968C320,945.664,334.304,959.968,352,959.968C352,959.968,672,959.968,672,959.968C689.696,959.968,704,945.664,704,927.968C704,927.968,704,895.968,704,895.968C704,895.968,320,895.968,320,895.968C320,895.968,320,927.968,320,927.968C320,927.968,320,927.968,320,927.968M832,127.968C832,92.704,803.264,63.968,768,63.968C768,63.968,256,63.968,256,63.968C220.704,63.968,192,92.704,192,127.968C192,127.968,192,671.968,192,671.968C192,671.968,832,671.968,832,671.968C832,671.968,832,127.968,832,127.968C832,127.968,832,127.968,832,127.968M896,768C896,768,896,736,896,736C896,736,128,736,128,736C128,736,128,768,128,768C128,768,128,799.968,128,799.968C128,817.664,142.304,831.968,160,831.968C160,831.968,864,831.968,864,831.968C881.696,831.968,896,817.664,896,799.968C896,799.968,896,768,896,768C896,768,896,768,896,768M288,127.84C288,127.84,352,127.84,352,127.84C369.696,127.84,384,142.144,384,159.84C384,159.84,384,575.84,384,575.84C384,593.536,369.696,607.84,352,607.84C352,607.84,288,607.84,288,607.84C270.304,607.84,256,593.536,256,575.84C256,575.84,256,159.84,256,159.84C256,142.144,270.304,127.84,288,127.84C288,127.84,288,127.84,288,127.84M288,575.872C288,575.872,352,575.872,352,575.872C352,575.872,352,159.872,352,159.872C352,159.872,288,159.872,288,159.872C288,159.872,288,575.872,288,575.872C288,575.872,288,575.872,288,575.872M480,127.84C480,127.84,544,127.84,544,127.84C561.696,127.84,576,142.144,576,159.84C576,159.84,576,575.84,576,575.84C576,593.536,561.696,607.84,544,607.84C544,607.84,480,607.84,480,607.84C462.304,607.84,448,593.536,448,575.84C448,575.84,448,159.84,448,159.84C448,142.144,462.304,127.84,480,127.84C480,127.84,480,127.84,480,127.84M480,575.872C480,575.872,544,575.872,544,575.872C544,575.872,544,159.872,544,159.872C544,159.872,480,159.872,480,159.872C480,159.872,480,575.872,480,575.872C480,575.872,480,575.872,480,575.872M672,127.84C672,127.84,736,127.84,736,127.84C753.696,127.84,768,142.144,768,159.84C768,159.84,768,575.84,768,575.84C768,593.536,753.696,607.84,736,607.84C736,607.84,672,607.84,672,607.84C654.304,607.84,640,593.536,640,575.84C640,575.84,640,159.84,640,159.84C640,142.144,654.304,127.84,672,127.84C672,127.84,672,127.84,672,127.84M672,575.872C672,575.872,736,575.872,736,575.872C736,575.872,736,159.872,736,159.872C736,159.872,672,159.872,672,159.872C672,159.872,672,575.872,672,575.872C672,575.872,672,575.872,672,575.872" class="icon-trash"/><glyph unicode="&#x0048;" d="M794.624,657.76C788.672,666.656,778.688,672,768,672C768,672,736,672,736,672C718.304,672,704,657.696,704,640C704,640,704,448,704,448C704,430.304,718.304,416,736,416C736,416,864,416,864,416C881.696,416,896,430.304,896,448C896,448,896,496,896,496C896,502.304,894.112,508.512,890.624,513.76C890.624,513.76,794.624,657.76,794.624,657.76C794.624,657.76,794.624,657.76,794.624,657.76M864,448C864,448,736,448,736,448C736,448,736,640,736,640C736,640,768,640,768,640C768,640,864,496,864,496C864,496,864,448,864,448C864,448,864,448,864,448M1007.872,533.248C1007.872,533.248,879.872,725.248,879.872,725.248C862.016,752.032,832.128,768,800,768C800,768,672,768,672,768C672,768,672,832,672,832C672,884.928,628.928,928,576,928C576,928,96,928,96,928C43.072,928,0,884.928,0,832C0,832,0,480,0,480C0,427.072,43.072,384,96,384C96,384,96,384,96,384C96,384,96,288,96,288C96,235.072,139.072,192,192,192C192,192,228.544,192,228.544,192C242.848,136.928,292.544,96,352.032,96C411.456,96,461.152,136.928,475.456,192C475.456,192,644.48,192,644.48,192C658.784,136.928,708.48,96,767.968,96C827.392,96,877.088,136.928,891.392,192C891.392,192,928,192,928,192C980.928,192,1024,235.072,1024,288C1024,288,1024,480,1024,480C1024,499.008,1018.432,517.44,1007.872,533.248C1007.872,533.248,1007.872,533.248,1007.872,533.248M96,448C78.336,448,64,462.304,64,480C64,480,64,832,64,832C64,849.696,78.336,864,96,864C96,864,576,864,576,864C593.696,864,608,849.696,608,832C608,832,608,768,608,768C608,768,608,704,608,704C608,704,608,480,608,480C608,462.304,593.696,448,576,448C576,448,96,448,96,448C96,448,96,448,96,448M352.032,160C316.672,160,288.032,188.672,288.032,224C288.032,259.328,316.672,288,352.032,288C387.36,288,416.032,259.328,416.032,224C416.032,188.672,387.328,160,352.032,160C352.032,160,352.032,160,352.032,160M768,160C732.64,160,704,188.672,704,224C704,259.328,732.64,288,768,288C803.328,288,832,259.328,832,224C832,188.672,803.328,160,768,160C768,160,768,160,768,160M960,288C960,270.304,945.696,256,928,256C928,256,891.424,256,891.424,256C877.12,311.072,827.424,352,768,352C708.512,352,658.816,311.072,644.512,256C644.512,256,475.488,256,475.488,256C461.184,311.072,411.488,352,352.064,352C292.576,352,242.88,311.072,228.576,256C228.576,256,192,256,192,256C174.336,256,160,270.304,160,288C160,288,160,384,160,384C160,384,576,384,576,384C628.928,384,672,427.072,672,480C672,480,672,704,672,704C672,704,800,704,800,704C810.688,704,820.672,698.656,826.624,689.76C826.624,689.76,954.624,497.76,954.624,497.76C958.112,492.512,960,486.304,960,480C960,480,960,288,960,288C960,288,960,288,960,288" class="icon-truck"/><glyph unicode="&#x0049;" d="M939.618,891.62C827.173,1004.13,644.809,1004.13,532.364,891.62C532.364,891.62,65.494,430.287,65.494,430.287C-21.831,342.961,-21.831,200.82,65.494,113.494C152.82,26.169,294.929,26.169,382.223,113.494C382.223,113.494,849.092,574.86,849.092,574.86C911.587,637.354,911.587,738.632,849.092,801.126C786.598,863.589,685.288,863.589,622.857,801.126C622.857,801.126,271.89,450.159,271.89,450.159C259.378,437.615,259.378,417.423,271.89,404.88C284.401,392.368,304.625,392.368,317.137,404.88C317.137,404.88,668.136,755.879,668.136,755.879C705.575,793.287,766.438,793.287,803.877,755.879C841.316,718.44,841.316,657.546,803.877,620.107C803.877,620.107,337.008,158.773,337.008,158.773C274.514,96.279,173.268,96.279,110.773,158.773C48.279,221.236,48.279,322.546,110.773,385.008C110.773,385.008,573.067,841.861,573.067,841.861C660.553,929.347,802.437,929.347,889.795,841.861C977.345,754.343,977.345,612.587,889.859,525.101C889.859,525.101,543.435,178.645,543.435,178.645C530.86,166.101,530.86,145.91,543.435,133.398C555.947,120.854,576.17,120.854,588.682,133.398C588.682,133.398,939.618,484.366,939.618,484.366C1052.127,596.811,1052.127,779.175,939.618,891.62C939.618,891.62,939.618,891.62,939.618,891.62" class="icon-clips"/><glyph unicode="&#x004a;" d="M1004.512,579.84C1004.512,579.84,844.512,835.84,844.512,835.84C821.152,873.248,780.128,896,736,896C736,896,128,896,128,896C57.312,896,0,838.688,0,768C0,768,0,256,0,256C0,185.312,57.312,128,128,128C128,128,736,128,736,128C780.128,128,821.12,150.752,844.512,188.192C844.512,188.192,1004.512,444.192,1004.512,444.192C1030.496,485.632,1030.496,538.336,1004.512,579.84C1004.512,579.84,1004.512,579.84,1004.512,579.84M950.24,478.112C950.24,478.112,790.24,222.048,790.24,222.048C778.496,203.232,758.176,192,736,192C736,192,128,192,128,192C92.704,192,64,220.736,64,256C64,256,64,768,64,768C64,803.296,92.704,832,128,832C128,832,736,832,736,832C758.176,832,778.496,820.736,790.24,801.952C790.24,801.952,950.24,545.952,950.24,545.952C963.136,525.312,963.136,498.688,950.24,478.112C950.24,478.112,950.24,478.112,950.24,478.112M736,608C682.944,608,640,565.024,640,512C640,458.976,682.944,416,736,416C788.992,416,832,459.008,832,512C832,565.024,788.992,608,736,608C736,608,736,608,736,608M736,447.968C700.64,447.968,672,476.64,672,511.968C672,547.296,700.64,575.968,736,575.968C771.328,575.968,800,547.296,800,511.968C800,476.672,771.328,447.968,736,447.968C736,447.968,736,447.968,736,447.968" class="icon-tag"/><glyph unicode="&#x004b;" d="M1024,219.728C1024,219.728,1024,146.576,1024,146.576C1024,136.688,1020.384,128.112,1013.152,120.848C1005.92,113.584,997.344,109.968,987.424,110C987.424,110,36.576,110,36.576,110C26.688,110,18.112,113.616,10.848,120.848C3.584,128.08,-0.032,136.656,0,146.576C0,146.576,0,219.728,0,219.728C0,229.616,3.616,238.192,10.848,245.456C18.08,252.72,26.656,256.336,36.576,256.304C36.576,256.304,987.424,256.304,987.424,256.304C997.312,256.304,1005.888,252.688,1013.152,245.456C1020.416,238.224,1024.032,229.648,1024,219.728C1024,219.728,1024,219.728,1024,219.728M1024,439.152C1024,439.152,1024,366,1024,366C1024,356.112,1020.384,347.536,1013.152,340.272C1005.92,333.008,997.344,329.392,987.424,329.424C987.424,329.424,36.576,329.424,36.576,329.424C26.688,329.424,18.112,333.04,10.848,340.272C3.584,347.504,-0.032,356.08,0,366C0,366,0,439.152,0,439.152C0,449.04,3.616,457.616,10.848,464.88C18.08,472.144,26.656,475.76,36.576,475.728C36.576,475.728,987.424,475.728,987.424,475.728C997.312,475.728,1005.888,472.112,1013.152,464.88C1020.416,457.648,1024.032,449.072,1024,439.152C1024,439.152,1024,439.152,1024,439.152M1024,658.576C1024,658.576,1024,585.424,1024,585.424C1024,575.536,1020.384,566.96,1013.152,559.696C1005.92,552.432,997.344,548.816,987.424,548.848C987.424,548.848,36.576,548.848,36.576,548.848C26.688,548.848,18.112,552.464,10.848,559.696C3.584,566.928,-0.032,575.504,0,585.424C0,585.424,0,658.576,0,658.576C0,668.464,3.616,677.04,10.848,684.304C18.08,691.568,26.656,695.184,36.576,695.152C36.576,695.152,987.424,695.152,987.424,695.152C997.312,695.152,1005.888,691.536,1013.152,684.304C1020.416,677.072,1024.032,668.496,1024,658.576C1024,658.576,1024,658.576,1024,658.576M1024,878C1024,878,1024,804.848,1024,804.848C1024,794.96,1020.384,786.384,1013.152,779.12C1005.92,771.856,997.344,768.24,987.424,768.272C987.424,768.272,36.576,768.272,36.576,768.272C26.688,768.272,18.112,771.888,10.848,779.12C3.584,786.352,-0.032,794.928,0,804.848C0,804.848,0,878,0,878C0,887.888,3.616,896.464,10.848,903.728C18.08,910.992,26.656,914.608,36.576,914.576C36.576,914.576,987.424,914.576,987.424,914.576C997.312,914.576,1005.888,910.96,1013.152,903.728C1020.416,896.496,1024.032,887.92,1024,878C1024,878,1024,878,1024,878" class="icon-bars"/><glyph unicode="&#x004c;" d="M810.709,938.906C810.709,930,807.261,922.129,800.424,915.291C800.424,915.291,397.19,512.057,397.19,512.057C397.19,512.057,800.424,108.824,800.424,108.824C807.261,101.986,810.709,94.115,810.709,85.209C810.709,76.303,807.261,68.431,800.424,61.594C800.424,61.594,749.115,10.285,749.115,10.285C742.277,3.447,734.406,0,725.5,0C716.594,0,708.723,3.447,701.885,10.285C701.885,10.285,223.785,488.385,223.785,488.385C216.947,495.223,213.5,503.094,213.5,512C213.5,520.906,216.947,528.777,223.785,535.615C223.785,535.615,701.885,1013.715,701.885,1013.715C708.723,1020.553,716.594,1024,725.5,1024C734.406,1024,742.277,1020.553,749.115,1013.715C749.115,1013.715,800.424,962.406,800.424,962.406C807.261,955.569,810.709,947.697,810.709,938.791C810.709,938.791,810.709,938.906,810.709,938.906" class="icon-left"/><glyph unicode="&#x004d;" d="M810.642,511.943C810.642,503.038,807.195,495.167,800.358,488.33C800.358,488.33,322.311,10.284,322.311,10.284C315.475,3.447,307.604,0,298.699,0C289.794,0,281.924,3.447,275.087,10.284C275.087,10.284,223.784,61.587,223.784,61.587C216.947,68.424,213.5,76.294,213.5,85.199C213.5,94.104,216.947,101.975,223.784,108.811C223.784,108.811,626.972,512,626.972,512C626.972,512,223.784,915.189,223.784,915.189C216.947,922.025,213.5,929.896,213.5,938.801C213.5,947.706,216.947,955.576,223.784,962.413C223.784,962.413,275.087,1013.716,275.087,1013.716C281.924,1020.553,289.794,1024,298.699,1024C307.604,1024,315.475,1020.553,322.311,1013.716C322.311,1013.716,800.358,535.67,800.358,535.67C807.195,528.833,810.642,520.962,810.642,512.057C810.642,512.057,810.642,511.943,810.642,511.943" class="icon-right"/><glyph unicode="&#x004e;" d="M938.669,921.7C962.145,921.7,982.246,913.337,998.941,896.641C1015.637,879.946,1024,859.845,1024,836.369C1024,836.369,1024,187.831,1024,187.831C1024,164.355,1015.637,144.254,998.941,127.559C982.246,110.863,962.145,102.5,938.669,102.5C938.669,102.5,85.331,102.5,85.331,102.5C61.855,102.5,41.754,110.863,25.059,127.559C8.363,144.254,0,164.355,0,187.831C0,187.831,0,836.369,0,836.369C0,859.845,8.363,879.946,25.059,896.641C41.754,913.337,61.855,921.7,85.331,921.7C85.331,921.7,938.669,921.7,938.669,921.7C938.669,921.7,938.669,921.7,938.669,921.7M85.301,853.453C80.672,853.453,76.669,851.751,73.294,848.376C69.919,845.001,68.217,840.999,68.217,836.369C68.217,836.369,68.217,716.9,68.217,716.9C68.217,716.9,955.694,716.9,955.694,716.9C955.694,716.9,955.694,836.369,955.694,836.369C955.694,840.999,953.991,845.001,950.616,848.376C947.241,851.751,943.239,853.453,938.609,853.453C938.609,853.453,85.271,853.453,85.271,853.453C85.271,853.453,85.301,853.453,85.301,853.453M938.669,170.747C943.299,170.747,947.301,172.449,950.676,175.824C954.051,179.199,955.753,183.201,955.753,187.831C955.753,187.831,955.753,512.1,955.753,512.1C955.753,512.1,68.277,512.1,68.277,512.1C68.277,512.1,68.277,187.831,68.277,187.831C68.277,183.201,69.979,179.199,73.354,175.824C76.729,172.449,80.731,170.747,85.361,170.747C85.361,170.747,938.699,170.747,938.699,170.747C938.699,170.747,938.669,170.747,938.669,170.747M136.494,239.023C136.494,239.023,136.494,307.3,136.494,307.3C136.494,307.3,273.017,307.3,273.017,307.3C273.017,307.3,273.017,239.023,273.017,239.023C273.017,239.023,136.494,239.023,136.494,239.023C136.494,239.023,136.494,239.023,136.494,239.023M341.323,239.023C341.323,239.023,341.323,307.3,341.323,307.3C341.323,307.3,546.123,307.3,546.123,307.3C546.123,307.3,546.123,239.023,546.123,239.023C546.123,239.023,341.323,239.023,341.323,239.023C341.323,239.023,341.323,239.023,341.323,239.023" class="icon-card"/><glyph unicode="&#x004f;" d="M1023.936,655.084C1023.936,655.084,1023.936,201.413,1023.936,201.413C1023.936,176.264,1014.977,154.73,997.091,136.845C979.206,118.959,957.672,110,932.523,110C932.523,110,91.477,110,91.477,110C66.328,110,44.794,118.959,26.909,136.845C9.023,154.73,0.064,176.264,0.064,201.413C0.064,201.413,0.064,655.084,0.064,655.084C16.83,636.43,36.059,619.856,57.785,605.362C195.656,511.646,290.332,445.958,341.749,408.235C363.475,392.237,381.072,379.758,394.607,370.799C408.141,361.841,426.123,352.69,448.616,343.379C471.109,334.068,492.034,329.397,511.456,329.365C511.456,329.365,512.608,329.365,512.608,329.365C532.029,329.365,552.987,334.036,575.448,343.379C597.909,352.722,615.923,361.873,629.457,370.799C642.992,379.726,660.621,392.205,682.315,408.235C747.075,455.077,841.911,520.797,966.855,605.362C988.58,620.208,1007.618,636.782,1024,655.084C1024,655.084,1023.936,655.084,1023.936,655.084M1023.936,823.063C1023.936,792.955,1014.593,764.222,995.94,736.802C977.286,709.381,954.025,685.96,926.22,666.538C783.006,567.127,693.865,505.215,658.83,480.834C655.022,478.178,646.927,472.355,634.545,463.396C622.162,454.437,611.892,447.206,603.701,441.671C595.51,436.135,585.591,429.96,573.976,423.113C562.362,416.266,551.387,411.114,541.116,407.691C530.846,404.267,521.311,402.539,512.544,402.539C512.544,402.539,511.392,402.539,511.392,402.539C502.625,402.539,493.09,404.267,482.82,407.691C472.549,411.114,461.574,416.266,449.96,423.113C438.345,429.96,428.426,436.135,420.235,441.671C412.044,447.206,401.774,454.437,389.391,463.396C377.009,472.355,368.914,478.178,365.106,480.834C330.455,505.215,280.541,539.962,215.397,585.109C150.253,630.255,111.218,657.388,98.26,666.538C74.647,682.536,52.377,704.55,31.42,732.546C10.463,760.543,0,786.555,0,810.552C0,840.277,7.903,865.01,23.709,884.815C39.515,904.621,62.072,914.507,91.413,914.539C91.413,914.539,932.459,914.539,932.459,914.539C957.224,914.539,978.662,905.581,996.739,887.695C1014.817,869.809,1023.872,848.276,1023.872,823.127C1023.872,823.127,1023.936,823.063,1023.936,823.063" class="icon-mail-square"/><glyph unicode="&#x0050;" d="M950.848,201.456C950.848,201.456,950.848,640.304,950.848,640.304C938.656,626.576,925.536,614,911.424,602.576C809.312,524.08,728.192,459.696,668,409.424C648.576,393.04,632.768,380.272,620.576,371.152C608.384,362.032,591.904,352.784,571.136,343.44C550.368,334.096,530.848,329.424,512.576,329.424C512.576,329.424,511.424,329.424,511.424,329.424C493.152,329.424,473.632,334.096,452.864,343.44C432.096,352.784,415.616,362.032,403.424,371.152C391.232,380.272,375.424,393.04,356,409.424C295.808,459.696,214.688,524.08,112.576,602.576C98.464,614,85.344,626.576,73.152,640.304C73.152,640.304,73.152,201.456,73.152,201.456C73.152,196.496,74.976,192.208,78.592,188.592C82.208,184.976,86.496,183.152,91.456,183.152C91.456,183.152,932.608,183.152,932.608,183.152C937.568,183.152,941.856,184.976,945.472,188.592C949.088,192.208,950.912,196.496,950.912,201.456C950.912,201.456,950.848,201.456,950.848,201.456M950.848,802.032C950.848,802.032,950.848,816.048,950.848,816.048C950.848,816.048,950.752,818.512,950.56,823.472C950.368,828.432,949.792,830.8,948.832,830.608C947.872,830.416,946.816,832.144,945.696,835.76C944.576,839.376,942.848,840.816,940.544,840.048C938.24,839.28,935.584,839.76,932.544,841.488C932.544,841.488,91.392,841.488,91.392,841.488C86.432,841.488,82.144,839.664,78.528,836.048C74.912,832.432,73.088,828.144,73.088,823.184C73.088,759.184,101.088,705.104,157.088,660.912C230.592,603.024,306.976,542.64,386.24,479.76C388.512,477.872,395.2,472.24,406.24,462.896C417.28,453.552,426.048,446.416,432.512,441.456C438.976,436.496,447.456,430.512,457.952,423.44C468.448,416.368,478.08,411.152,486.816,407.728C495.552,404.304,503.744,402.608,511.392,402.576C511.392,402.576,512.544,402.576,512.544,402.576C520.16,402.576,528.352,404.304,537.12,407.728C545.888,411.152,555.52,416.4,565.984,423.44C576.448,430.48,584.928,436.496,591.424,441.456C597.92,446.416,606.656,453.584,617.696,462.896C628.736,472.208,635.392,477.84,637.696,479.76C716.928,542.608,793.312,602.992,866.848,660.912C887.424,677.296,906.56,699.312,924.288,726.928C942.016,754.544,950.88,779.6,950.848,802.064C950.848,802.064,950.848,802.032,950.848,802.032M1024,823.152C1024,823.152,1024,201.424,1024,201.424C1024,176.272,1015.04,154.736,997.152,136.848C979.264,118.96,957.728,110,932.576,110C932.576,110,91.424,110,91.424,110C66.272,110,44.736,118.96,26.848,136.848C8.96,154.736,0,176.272,0,201.424C0,201.424,0,823.152,0,823.152C0,848.304,8.96,869.84,26.848,887.728C44.736,905.616,66.272,914.576,91.424,914.576C91.424,914.576,932.576,914.576,932.576,914.576C957.728,914.576,979.264,905.616,997.152,887.728C1015.04,869.84,1024,848.304,1024,823.152C1024,823.152,1024,823.152,1024,823.152" class="icon-mail"/><glyph unicode="&#x0051;" d="M1024.5,384.056C1024.5,384.056,1024.5,274.331,1024.5,274.331C1024.5,269.372,1022.676,265.084,1019.06,261.468C1015.444,257.852,1011.156,256.028,1006.197,256.028C1006.197,256.028,219.949,256.028,219.949,256.028C219.949,256.028,219.949,146.303,219.949,146.303C219.949,141.344,218.125,137.056,214.509,133.44C210.893,129.824,206.606,128,201.646,128C197.07,128,192.494,129.92,187.918,133.728C187.918,133.728,5.652,316.57,5.652,316.57C2.228,319.994,0.5,324.186,0.5,329.146C0.5,334.49,2.228,338.873,5.652,342.297C5.652,342.297,188.494,525.14,188.494,525.14C191.918,528.563,196.302,530.291,201.646,530.291C206.606,530.291,210.893,528.467,214.509,524.852C218.125,521.236,219.949,516.948,219.949,511.988C219.949,511.988,219.949,402.263,219.949,402.263C219.949,402.263,1006.197,402.263,1006.197,402.263C1011.156,402.263,1015.444,400.439,1019.06,396.824C1022.676,393.208,1024.5,388.92,1024.5,383.96C1024.5,383.96,1024.5,384.056,1024.5,384.056M1024.5,694.894C1024.5,689.55,1022.772,685.167,1019.348,681.743C1019.348,681.743,836.506,498.9,836.506,498.9C833.082,495.477,828.698,493.749,823.354,493.749C818.394,493.749,814.107,495.573,810.491,499.188C806.875,502.804,805.051,507.092,805.051,512.052C805.051,512.052,805.051,621.777,805.051,621.777C805.051,621.777,18.803,621.777,18.803,621.777C13.844,621.777,9.556,623.601,5.94,627.216C2.324,630.832,0.5,635.12,0.5,640.08C0.5,640.08,0.5,749.805,0.5,749.805C0.5,754.764,2.324,759.052,5.94,762.668C9.556,766.284,13.844,768.108,18.803,768.108C18.803,768.108,805.051,768.108,805.051,768.108C805.051,768.108,805.051,877.833,805.051,877.833C805.051,883.176,806.779,887.56,810.203,890.984C813.627,894.408,818.01,896.136,823.354,896.136C827.93,896.136,832.506,894.216,837.082,890.408C837.082,890.408,1019.348,708.142,1019.348,708.142C1022.772,704.718,1024.5,700.334,1024.5,694.99C1024.5,694.99,1024.5,694.894,1024.5,694.894" class="icon-change"/><glyph unicode="&#x0052;" d="M871.309,497.347C871.309,497.347,886.653,643.355,886.653,643.355C886.653,643.355,754.644,643.355,754.644,643.355C754.644,643.355,754.644,716.005,754.644,716.005C754.644,737.77,758.079,753.002,764.985,761.663C771.892,770.324,787.758,774.655,812.659,774.655C812.659,774.655,885.981,774.655,885.981,774.655C885.981,774.655,885.981,920.663,885.981,920.663C885.981,920.663,769.316,920.663,769.316,920.663C701.781,920.663,653.323,904.647,623.98,872.653C594.636,840.659,579.964,793.321,579.964,730.639C579.964,730.639,579.964,643.318,579.964,643.318C579.964,643.318,492.643,643.318,492.643,643.318C492.643,643.318,492.643,497.31,492.643,497.31C492.643,497.31,579.964,497.31,579.964,497.31C579.964,497.31,579.964,73.994,579.964,73.994C579.964,73.994,754.644,73.994,754.644,73.994C754.644,73.994,754.644,497.31,754.644,497.31C754.644,497.31,871.309,497.31,871.309,497.31C871.309,497.31,871.309,497.347,871.309,497.347M1024,831.998C1024,831.998,1024,192.002,1024,192.002C1024,139.102,1005.222,93.892,967.665,56.335C930.108,18.778,884.898,0,831.998,0C831.998,0,192.002,0,192.002,0C139.102,0,93.892,18.778,56.335,56.335C18.778,93.892,0,139.102,0,192.002C0,192.002,0,831.998,0,831.998C0,884.898,18.778,930.108,56.335,967.665C93.892,1005.222,139.102,1024,192.002,1024C192.002,1024,831.998,1024,831.998,1024C884.898,1024,930.108,1005.222,967.665,967.665C1005.222,930.108,1024,884.898,1024,831.998C1024,831.998,1024,831.998,1024,831.998" class="icon-facebook-square"/><glyph unicode="&#x0053;" d="M591.045,688.431C591.045,688.431,750.722,688.431,750.722,688.431C750.722,688.431,732.071,511.983,732.071,511.983C732.071,511.983,591.01,511.983,591.01,511.983C591.01,511.983,591.01,0,591.01,0C591.01,0,379.139,0,379.139,0C379.139,0,379.139,511.983,379.139,511.983C379.139,511.983,273.5,511.983,273.5,511.983C273.5,511.983,273.5,688.431,273.5,688.431C273.5,688.431,379.139,688.431,379.139,688.431C379.139,688.431,379.139,794.697,379.139,794.697C379.139,870.099,396.955,927.164,432.586,965.891C468.216,1004.619,526.847,1024,608.443,1024C608.443,1024,749.504,1024,749.504,1024C749.504,1024,749.504,847.551,749.504,847.551C749.504,847.551,661.262,847.551,661.262,847.551C645.117,847.551,632.173,846.194,622.43,843.515C612.688,840.836,605.659,835.965,601.309,828.901C596.96,821.838,594.176,814.704,592.924,807.467C591.671,800.229,591.045,789.965,591.045,776.708C591.045,776.708,591.045,688.466,591.045,688.466C591.045,688.466,591.045,688.431,591.045,688.431" class="icon-facebook"/><glyph unicode="&#x0054;" d="M800.007,512C800.007,494.696,793.679,479.688,781.023,466.977C781.023,466.977,333.03,18.984,333.03,18.984C320.374,6.328,305.367,0,288.007,0C270.647,0,255.64,6.328,242.984,18.984C230.328,31.64,224,46.647,224,64.007C224,64.007,224,959.993,224,959.993C224,977.297,230.328,992.304,242.984,1005.016C255.64,1017.728,270.647,1024.056,288.007,1024C305.367,1023.944,320.374,1017.616,333.03,1005.016C333.03,1005.016,781.023,557.023,781.023,557.023C793.679,544.367,800.007,529.36,800.007,512C800.007,512,800.007,512,800.007,512" class="icon-play"/><glyph unicode="&#x0055;" d="M682.925,682.654C682.925,729.77,666.274,769.979,632.935,803.318C599.596,836.657,559.387,853.308,512.271,853.308C465.155,853.308,424.947,836.657,391.607,803.318C358.268,769.979,341.617,729.77,341.617,682.654C341.617,635.539,358.268,595.33,391.607,561.99C424.947,528.651,465.155,512,512.271,512C559.387,512,599.596,528.651,632.935,561.99C666.274,595.33,682.925,635.539,682.925,682.654C682.925,682.654,682.925,682.654,682.925,682.654M853.617,682.654C853.617,634.232,846.299,594.434,831.627,563.334C831.627,563.334,588.955,47.34,588.955,47.34C581.825,32.667,571.296,21.131,557.296,12.656C543.296,4.181,528.325,-0.037,512.308,0C496.292,0.037,481.321,4.256,467.321,12.656C453.321,21.056,443.016,32.63,436.334,47.34C436.334,47.34,192.99,563.334,192.99,563.334C178.317,594.434,171,634.232,171,682.654C171,776.886,204.339,857.341,271.018,923.982C337.697,990.623,418.152,1023.963,512.346,1024C606.54,1024.037,686.995,990.698,753.673,923.982C820.352,857.266,853.692,776.848,853.692,682.654C853.692,682.654,853.617,682.654,853.617,682.654" class="icon-map"/><glyph unicode="&#x0056;" d="M512,1024C604.887,1024,690.569,1001.114,769.008,955.343C847.447,909.571,909.571,847.447,955.343,769.008C1001.114,690.569,1024,604.887,1024,512C1024,419.113,1001.114,333.431,955.343,254.992C909.571,176.553,847.447,114.429,769.008,68.657C690.569,22.886,604.887,0,512,0C419.113,0,333.431,22.886,254.992,68.657C176.553,114.429,114.429,176.553,68.657,254.992C22.886,333.431,0,419.113,0,512C0,604.887,22.886,690.569,68.657,769.008C114.429,847.447,176.553,909.571,254.992,955.343C333.431,1001.114,419.113,1024,512,1024C512,1024,512,1024,512,1024M768,475.338C782.224,483.327,789.318,495.536,789.318,512C789.318,528.464,782.224,540.673,768,548.662C768,548.662,405.336,761.989,405.336,761.989C391.56,770.427,377.336,770.651,362.664,762.661C348.439,754.224,341.346,741.791,341.346,725.327C341.346,725.327,341.346,298.636,341.346,298.636C341.346,282.171,348.439,269.739,362.664,261.301C369.794,257.755,376.888,255.963,383.981,255.963C391.56,255.963,398.654,257.979,405.299,261.973C405.299,261.973,768,475.338,768,475.338" class="icon-play-square"/><glyph unicode="&#x0057;" d="M765.984,361.32C765.984,372.856,761.765,382.861,753.328,391.336C753.328,391.336,632.664,512,632.664,512C632.664,512,753.328,632.664,753.328,632.664C761.765,641.101,765.984,651.107,765.984,662.68C765.984,674.665,761.765,684.894,753.328,693.332C753.328,693.332,693.332,753.328,693.332,753.328C684.894,761.765,674.665,765.984,662.68,765.984C651.144,765.984,641.139,761.765,632.664,753.328C632.664,753.328,512,632.664,512,632.664C512,632.664,391.336,753.328,391.336,753.328C382.899,761.765,372.893,765.984,361.32,765.984C349.335,765.984,339.106,761.765,330.668,753.328C330.668,753.328,270.672,693.332,270.672,693.332C262.235,684.894,258.016,674.665,258.016,662.68C258.016,651.144,262.235,641.139,270.672,632.664C270.672,632.664,391.336,512,391.336,512C391.336,512,270.672,391.336,270.672,391.336C262.235,382.899,258.016,372.893,258.016,361.32C258.016,349.335,262.235,339.106,270.672,330.668C270.672,330.668,330.668,270.672,330.668,270.672C339.106,262.235,349.335,258.016,361.32,258.016C372.856,258.016,382.861,262.235,391.336,270.672C391.336,270.672,512,391.336,512,391.336C512,391.336,632.664,270.672,632.664,270.672C641.101,262.235,651.107,258.016,662.68,258.016C674.665,258.016,684.894,262.235,693.332,270.672C693.332,270.672,753.328,330.668,753.328,330.668C761.765,339.106,765.984,349.335,765.984,361.32C765.984,361.32,765.984,361.32,765.984,361.32M1024,512C1024,419.113,1001.114,333.431,955.343,254.992C909.571,176.553,847.447,114.429,769.008,68.657C690.569,22.886,604.887,0,512,0C419.113,0,333.431,22.886,254.992,68.657C176.553,114.429,114.429,176.553,68.657,254.992C22.886,333.431,0,419.113,0,512C0,604.887,22.886,690.569,68.657,769.008C114.429,847.447,176.553,909.571,254.992,955.343C333.431,1001.114,419.113,1024,512,1024C604.887,1024,690.569,1001.114,769.008,955.343C847.447,909.571,909.571,847.447,955.343,769.008C1001.114,690.569,1024,604.887,1024,512C1024,512,1024,512,1024,512" class="icon-times-square"/><glyph unicode="&#x0058;" d="M341.289,246.647C341.289,267.188,333.79,284.974,318.758,299.973C303.726,314.971,285.973,322.471,265.432,322.504C244.892,322.537,227.139,315.004,212.107,299.973C197.075,284.941,189.576,267.154,189.576,246.647C189.576,226.14,197.075,208.354,212.107,193.322C227.139,178.29,244.892,170.757,265.432,170.79C285.973,170.824,303.726,178.323,318.758,193.322C333.79,208.321,341.289,226.107,341.289,246.647C341.289,246.647,341.289,246.647,341.289,246.647M113.719,550.041C113.719,550.041,341.256,550.041,341.256,550.041C341.256,550.041,341.256,701.721,341.256,701.721C341.256,701.721,247.646,701.721,247.646,701.721C242.503,701.721,238.156,699.929,234.605,696.379C234.605,696.379,119.061,580.835,119.061,580.835C115.511,577.284,113.719,572.937,113.719,567.794C113.719,567.794,113.719,550.008,113.719,550.008C113.719,550.008,113.719,550.041,113.719,550.041M872.22,246.647C872.22,267.188,864.721,284.974,849.689,299.973C834.657,314.971,816.904,322.471,796.363,322.504C775.823,322.537,758.07,315.004,743.038,299.973C728.006,284.941,720.506,267.154,720.506,246.647C720.506,226.14,728.006,208.354,743.038,193.322C758.07,178.29,775.823,170.757,796.363,170.79C816.904,170.824,834.657,178.323,849.689,193.322C864.721,208.321,872.22,226.107,872.22,246.647C872.22,246.647,872.22,246.647,872.22,246.647M1023.9,891.363C1023.9,891.363,1023.9,284.576,1023.9,284.576C1023.9,278.636,1023.104,273.426,1021.544,268.88C1019.985,264.334,1017.297,260.684,1013.547,257.929C1009.797,255.175,1006.512,252.886,1003.758,251.127C1001.004,249.368,996.358,248.174,989.821,247.576C983.284,246.979,978.837,246.581,976.481,246.382C974.125,246.183,969.082,246.183,961.383,246.382C953.685,246.581,949.238,246.68,948.043,246.68C948.043,204.803,933.244,169.065,903.611,139.432C873.979,109.8,838.24,95,796.363,95C754.486,95,718.748,109.8,689.115,139.432C659.483,169.065,644.683,204.803,644.683,246.68C644.683,246.68,417.146,246.68,417.146,246.68C417.146,204.803,402.346,169.065,372.713,139.432C343.081,109.8,307.343,95,265.465,95C223.588,95,187.85,109.8,158.217,139.432C128.585,169.065,113.785,204.803,113.785,246.68C113.785,246.68,75.857,246.68,75.857,246.68C74.662,246.68,70.216,246.581,62.517,246.382C54.819,246.183,49.775,246.183,47.419,246.382C45.063,246.581,40.616,246.979,34.079,247.576C27.542,248.174,22.896,249.368,20.142,251.127C17.388,252.886,14.103,255.175,10.353,257.929C6.603,260.684,3.916,264.334,2.356,268.88C0.796,273.426,0,278.636,0,284.576C0,294.829,3.75,303.722,11.249,311.255C18.748,318.787,27.642,322.537,37.928,322.504C37.928,322.504,37.928,512.113,37.928,512.113C37.928,515.265,37.829,522.2,37.63,532.852C37.431,543.504,37.431,551.036,37.63,555.383C37.829,559.73,38.327,566.566,39.123,575.824C39.919,585.082,41.214,592.416,42.972,597.758C44.731,603.101,47.518,609.14,51.268,615.843C55.018,622.546,59.464,628.486,64.608,633.629C64.608,633.629,181.943,750.965,181.943,750.965C189.443,758.465,199.431,764.769,211.875,769.913C224.318,775.056,235.899,777.611,246.551,777.611C246.551,777.611,341.355,777.611,341.355,777.611C341.355,777.611,341.355,891.396,341.355,891.396C341.355,901.65,345.105,910.543,352.604,918.076C360.104,925.608,368.997,929.358,379.284,929.325C379.284,929.325,986.071,929.325,986.071,929.325C996.325,929.325,1005.218,925.575,1012.751,918.076C1020.283,910.576,1024.033,901.683,1024,891.396C1024,891.396,1023.9,891.363,1023.9,891.363" class="icon-truck"/><glyph unicode="&#x0059;" d="M981.692,172.67C981.692,119.32,965.451,77.207,933.008,46.332C900.565,15.456,857.444,0,803.683,0C803.683,0,221.009,0,221.009,0C167.211,0,124.127,15.456,91.684,46.332C59.24,77.207,43.037,119.32,43,172.67C43,196.228,43.784,219.226,45.352,241.664C46.92,264.102,50.019,288.331,54.686,314.316C59.352,340.3,65.214,364.418,72.345,386.669C79.475,408.921,89.033,430.574,101.017,451.668C113.001,472.762,126.778,490.757,142.346,505.653C157.914,520.55,176.917,532.459,199.355,541.307C221.793,550.155,246.583,554.598,273.687,554.636C277.682,554.636,287.016,549.857,301.688,540.299C316.36,530.742,332.899,520.064,351.342,508.304C369.785,496.544,393.791,485.866,423.36,476.309C452.929,466.751,482.609,461.972,512.364,461.972C542.12,461.972,571.8,466.751,601.369,476.309C630.938,485.866,654.943,496.544,673.386,508.304C691.83,520.064,708.369,530.742,723.041,540.299C737.713,549.857,747.047,554.636,751.041,554.636C778.146,554.636,802.936,550.193,825.374,541.307C847.811,532.422,866.814,520.55,882.383,505.653C897.951,490.757,911.727,472.762,923.712,451.668C935.696,430.574,945.253,408.883,952.384,386.669C959.515,364.456,965.377,340.338,970.043,314.316C974.71,288.294,977.809,264.102,979.377,241.664C980.945,219.226,981.729,196.228,981.729,172.67C981.729,172.67,981.692,172.67,981.692,172.67M768.364,768C768.364,697.327,743.351,636.995,693.36,587.004C643.37,537.014,583.038,512,512.364,512C441.691,512,381.359,537.014,331.369,587.004C281.378,636.995,256.364,697.327,256.364,768C256.364,838.673,281.378,899.005,331.369,948.996C381.359,998.986,441.691,1024,512.364,1024C583.038,1024,643.37,998.986,693.36,948.996C743.351,899.005,768.364,838.673,768.364,768C768.364,768,768.364,768,768.364,768" class="icon-user"/><glyph unicode="&#x005a;" d="M1024,751.574C1024,733.963,1017.822,718.98,1005.502,706.66C1005.502,706.66,437.34,138.498,437.34,138.498C425.02,126.178,410.037,120,392.426,120C374.816,120,359.832,126.178,347.512,138.498C347.512,138.498,18.498,467.512,18.498,467.512C6.178,479.832,0,494.816,0,512.426C0,530.037,6.178,545.02,18.498,557.34C18.498,557.34,108.364,647.206,108.364,647.206C120.684,659.526,135.668,665.704,153.278,665.704C170.889,665.704,185.872,659.526,198.192,647.206C198.192,647.206,392.426,452.306,392.426,452.306C392.426,452.306,825.808,886.354,825.808,886.354C838.128,898.674,853.111,904.852,870.722,904.852C888.332,904.852,903.316,898.674,915.636,886.354C915.636,886.354,1005.502,796.488,1005.502,796.488C1017.822,784.168,1024,769.184,1024,751.574C1024,751.574,1024,751.574,1024,751.574" class="icon-check"/><glyph unicode="&#x0061;" d="M630.183,551.517C630.183,562.166,626.289,571.401,618.501,579.224C610.713,587.046,601.477,590.941,590.794,590.906C590.794,590.906,433.275,590.906,433.275,590.906C422.626,590.906,413.391,587.012,405.568,579.224C397.746,571.436,393.851,562.2,393.886,551.517C393.92,540.835,397.814,531.599,405.568,523.811C413.322,516.023,422.557,512.129,433.275,512.129C433.275,512.129,590.794,512.129,590.794,512.129C601.443,512.129,610.678,516.023,618.501,523.811C626.323,531.599,630.217,540.835,630.183,551.517C630.183,551.517,630.183,551.517,630.183,551.517M984.611,669.649C984.611,669.649,984.611,78.889,984.611,78.889C984.611,68.24,980.717,59.005,972.929,51.182C965.141,43.36,955.906,39.466,945.223,39.5C945.223,39.5,78.777,39.5,78.777,39.5C68.129,39.5,58.893,43.394,51.071,51.182C43.248,58.971,39.354,68.206,39.389,78.889C39.389,78.889,39.389,669.649,39.389,669.649C39.389,680.297,43.283,689.533,51.071,697.355C58.859,705.178,68.094,709.072,78.777,709.037C78.777,709.037,945.223,709.037,945.223,709.037C955.871,709.037,965.107,705.143,972.929,697.355C980.752,689.567,984.646,680.332,984.611,669.649C984.611,669.649,984.611,669.649,984.611,669.649M1024,945.334C1024,945.334,1024,787.815,1024,787.815C1024,777.166,1020.106,767.931,1012.318,760.108C1004.53,752.286,995.294,748.391,984.611,748.426C984.611,748.426,39.389,748.426,39.389,748.426C28.74,748.426,19.505,752.32,11.682,760.108C3.86,767.896,-0.034,777.132,0,787.815C0,787.815,0,945.334,0,945.334C0,955.983,3.894,965.218,11.682,973.041C19.47,980.863,28.706,984.758,39.389,984.723C39.389,984.723,984.611,984.723,984.611,984.723C995.26,984.723,1004.495,980.829,1012.318,973.041C1020.14,965.253,1024.034,956.017,1024,945.334C1024,945.334,1024,945.334,1024,945.334" class="icon-prepare"/><glyph unicode="&#x0062;" d="M365.728,804.924C365.728,804.924,658.304,804.924,658.304,804.924C658.304,804.924,658.304,878.076,658.304,878.076C658.304,878.076,365.728,878.076,365.728,878.076C365.728,878.076,365.728,804.924,365.728,804.924C365.728,804.924,365.728,804.924,365.728,804.924M1024,439.196C1024,439.196,1024,164.924,1024,164.924C1024,139.772,1015.04,118.236,997.152,100.348C979.264,82.46,957.728,73.5,932.576,73.5C932.576,73.5,91.424,73.5,91.424,73.5C66.272,73.5,44.736,82.46,26.848,100.348C8.96,118.236,0,139.772,0,164.924C0,164.924,0,439.196,0,439.196C0,439.196,384,439.196,384,439.196C384,439.196,384,347.772,384,347.772C384,337.884,387.616,329.308,394.848,322.044C402.08,314.78,410.656,311.164,420.576,311.196C420.576,311.196,603.424,311.196,603.424,311.196C613.312,311.196,621.888,314.812,629.152,322.044C636.416,329.276,640.032,337.852,640,347.772C640,347.772,640,439.196,640,439.196C640,439.196,1024,439.196,1024,439.196C1024,439.196,1024,439.196,1024,439.196M585.152,439.196C585.152,439.196,585.152,366.044,585.152,366.044C585.152,366.044,438.88,366.044,438.88,366.044C438.88,366.044,438.88,439.196,438.88,439.196C438.88,439.196,585.152,439.196,585.152,439.196C585.152,439.196,585.152,439.196,585.152,439.196M1024,713.468C1024,713.468,1024,494.044,1024,494.044C1024,494.044,0,494.044,0,494.044C0,494.044,0,713.468,0,713.468C0,738.62,8.96,760.156,26.848,778.044C44.736,795.932,66.272,804.892,91.424,804.892C91.424,804.892,292.576,804.892,292.576,804.892C292.576,804.892,292.576,896.316,292.576,896.316C292.576,911.548,297.92,924.508,308.576,935.164C319.232,945.82,332.192,951.164,347.424,951.164C347.424,951.164,676.576,951.164,676.576,951.164C691.808,951.164,704.768,945.82,715.424,935.164C726.08,924.508,731.424,911.548,731.424,896.316C731.424,896.316,731.424,804.892,731.424,804.892C731.424,804.892,932.576,804.892,932.576,804.892C957.728,804.892,979.264,795.932,997.152,778.044C1015.04,760.156,1024,738.62,1024,713.468C1024,713.468,1024,713.468,1024,713.468" class="icon-bag"/><glyph unicode="&#x0063;" d="M509.718,310.061C509.718,310.061,576.289,376.633,576.289,376.633C576.289,376.633,489.049,463.873,489.049,463.873C489.049,463.873,422.477,397.302,422.477,397.302C422.477,397.302,422.477,365.157,422.477,365.157C422.477,365.157,477.573,365.157,477.573,365.157C477.573,365.157,477.573,310.061,477.573,310.061C477.573,310.061,509.718,310.061,509.718,310.061C509.718,310.061,509.718,310.061,509.718,310.061M762.278,723.345C756.139,729.485,749.838,729.292,743.345,722.766C743.345,722.766,542.441,521.862,542.441,521.862C535.916,515.337,535.723,509.037,541.862,502.929C548.002,496.822,554.302,497.015,560.796,503.508C560.796,503.508,761.7,704.412,761.7,704.412C768.225,710.937,768.418,717.238,762.278,723.345C762.278,723.345,762.278,723.345,762.278,723.345M808.213,382.387C808.213,382.387,808.213,273.32,808.213,273.32C808.213,227.771,792.044,188.844,759.707,156.506C727.369,124.169,688.442,108,642.893,108C642.893,108,165.32,108,165.32,108C119.771,108,80.844,124.169,48.506,156.506C16.169,188.844,0,227.771,0,273.32C0,273.32,0,750.893,0,750.893C0,796.442,16.169,835.369,48.506,867.707C80.844,900.044,119.771,916.213,165.32,916.213C165.32,916.213,642.893,916.213,642.893,916.213C667.002,916.213,689.374,911.423,710.043,901.876C715.797,899.208,719.237,894.805,720.362,888.665C721.519,882.14,719.783,876.611,715.186,872.014C715.186,872.014,687.06,843.887,687.06,843.887C681.692,838.519,675.584,837.009,668.705,839.291C659.898,841.573,651.283,842.73,642.861,842.73C642.861,842.73,165.288,842.73,165.288,842.73C140.022,842.73,118.389,833.73,100.42,815.761C82.451,797.792,73.451,776.159,73.451,750.893C73.451,750.893,73.451,273.32,73.451,273.32C73.451,248.054,82.451,226.421,100.42,208.452C118.389,190.483,140.022,181.483,165.288,181.483C165.288,181.483,642.861,181.483,642.861,181.483C668.127,181.483,689.76,190.483,707.729,208.452C725.698,226.421,734.698,248.054,734.698,273.32C734.698,273.32,734.698,345.645,734.698,345.645C734.698,350.628,736.434,354.839,739.873,358.278C739.873,358.278,776.615,395.02,776.615,395.02C782.369,400.773,789.055,402.091,796.705,399.038C804.356,395.984,808.181,390.423,808.181,382.387C808.181,382.387,808.213,382.387,808.213,382.387M753.117,806.021C753.117,806.021,918.437,640.701,918.437,640.701C918.437,640.701,532.701,254.965,532.701,254.965C532.701,254.965,367.381,254.965,367.381,254.965C367.381,254.965,367.381,420.285,367.381,420.285C367.381,420.285,753.117,806.021,753.117,806.021M1007.96,730.256C1007.96,730.256,955.146,677.442,955.146,677.442C955.146,677.442,789.826,842.762,789.826,842.762C789.826,842.762,842.64,895.576,842.64,895.576C853.344,906.28,866.363,911.648,881.663,911.648C896.964,911.648,909.983,906.28,920.687,895.576C920.687,895.576,1007.928,808.336,1007.928,808.336C1018.632,797.631,1024,784.613,1024,769.312C1024,754.011,1018.632,740.992,1007.928,730.288C1007.928,730.288,1007.96,730.256,1007.96,730.256" class="icon-write"/><glyph unicode="&#x0064;" d="M768.192,319.991C768.192,319.991,768.192,277.318,768.192,277.318C768.192,271.083,766.176,265.968,762.181,261.973C758.186,257.979,753.071,255.963,746.836,255.963C746.836,255.963,277.509,255.963,277.509,255.963C271.275,255.963,266.16,257.979,262.165,261.973C258.17,265.968,256.154,271.083,256.154,277.318C256.154,277.318,256.154,319.991,256.154,319.991C256.154,326.225,258.17,331.34,262.165,335.335C266.16,339.33,271.275,341.346,277.509,341.346C277.509,341.346,746.836,341.346,746.836,341.346C753.071,341.346,758.186,339.33,762.181,335.335C766.176,331.34,768.192,326.225,768.192,319.991C768.192,319.991,768.192,319.991,768.192,319.991M768.192,490.682C768.192,490.682,768.192,448.009,768.192,448.009C768.192,441.775,766.176,436.66,762.181,432.665C758.186,428.67,753.071,426.654,746.836,426.654C746.836,426.654,277.509,426.654,277.509,426.654C271.275,426.654,266.16,428.67,262.165,432.665C258.17,436.66,256.154,441.775,256.154,448.009C256.154,448.009,256.154,490.682,256.154,490.682C256.154,496.917,258.17,502.032,262.165,506.027C266.16,510.021,271.275,512.037,277.509,512.037C277.509,512.037,746.836,512.037,746.836,512.037C753.071,512.037,758.186,510.021,762.181,506.027C766.176,502.032,768.192,496.917,768.192,490.682C768.192,490.682,768.192,490.682,768.192,490.682M170.846,85.308C170.846,85.308,853.537,85.308,853.537,85.308C853.537,85.308,853.537,597.308,853.537,597.308C853.537,597.308,576.182,597.308,576.182,597.308C558.411,597.308,543.291,603.543,530.859,615.975C518.426,628.408,512.192,643.528,512.192,661.299C512.192,661.299,512.192,938.654,512.192,938.654C512.192,938.654,170.846,938.654,170.846,938.654C170.846,938.654,170.846,85.308,170.846,85.308C170.846,85.308,170.846,85.308,170.846,85.308M597.5,682.654C597.5,682.654,848.161,682.654,848.161,682.654C843.718,695.534,838.828,704.644,833.489,709.983C833.489,709.983,624.829,918.643,624.829,918.643C619.49,923.982,610.38,928.873,597.5,933.315C597.5,933.315,597.5,682.654,597.5,682.654C597.5,682.654,597.5,682.654,597.5,682.654M938.846,661.336C938.846,661.336,938.846,63.991,938.846,63.991C938.846,46.22,932.611,31.099,920.179,18.667C907.746,6.235,892.626,0,874.855,0C874.855,0,149.491,0,149.491,0C131.72,0,116.599,6.235,104.167,18.667C91.735,31.099,85.5,46.22,85.5,63.991C85.5,63.991,85.5,960.009,85.5,960.009C85.5,977.78,91.735,992.901,104.167,1005.333C116.599,1017.765,131.72,1024,149.491,1024C149.491,1024,576.182,1024,576.182,1024C593.953,1024,613.516,1019.557,634.834,1010.672C656.152,1001.786,673.064,991.109,685.496,978.676C685.496,978.676,893.485,770.688,893.485,770.688C905.917,758.256,916.595,741.343,925.48,720.026C934.366,698.708,938.808,679.145,938.808,661.374C938.808,661.374,938.846,661.336,938.846,661.336" class="icon-terms"/><glyph unicode="&#x0065;" d="M986.093,427.037C986.093,427.037,595.782,36.726,595.782,36.726C572.733,13.229,544.47,1.5,510.995,1.5C477.519,1.5,449.033,13.229,425.537,36.726C425.537,36.726,35.226,427.037,35.226,427.037C11.729,450.533,0,478.907,0,512.159C0,545.412,11.729,573.786,35.226,597.282C35.226,597.282,425.537,987.593,425.537,987.593C449.033,1011.09,477.407,1022.819,510.659,1022.819C543.912,1022.819,572.286,1011.09,595.782,987.593C595.782,987.593,771.984,811.391,771.984,811.391C771.984,811.391,507.345,546.082,507.345,546.082C507.345,546.082,382.343,671.084,382.343,671.084C363.725,689.702,341.793,699.012,316.509,699.012C290.332,699.012,268.176,689.926,250.005,671.755C250.005,671.755,170.207,591.287,170.207,591.287C151.589,573.562,142.28,551.63,142.28,525.453C142.28,499.723,151.589,477.567,170.207,458.949C170.207,458.949,440.171,187.645,440.171,187.645C453.464,175.245,468.322,167.016,484.706,163.031C484.706,163.031,488.69,160.388,488.69,160.388C488.69,160.388,507.308,160.388,507.308,160.388C533.895,160.388,555.827,169.473,573.142,187.645C573.142,187.645,984.753,599.255,984.753,599.255C984.753,599.255,986.093,597.245,986.093,597.245C1009.59,573.748,1021.319,545.374,1021.319,512.122C1021.319,478.87,1009.59,450.496,986.093,427C986.093,427,986.093,427.037,986.093,427.037M934.893,843.302C934.893,843.302,1014.691,763.505,1014.691,763.505C1020.909,756.84,1024,748.871,1024,739.562C1024,730.253,1020.909,722.284,1014.691,715.619C1014.691,715.619,529.278,230.206,529.278,230.206C521.719,223.54,513.527,220.226,504.664,220.226C504.664,220.226,504.664,220.226,504.664,220.226C502.914,220.226,501.574,220.45,500.68,220.897C492.712,221.79,486.046,224.881,480.721,230.206C480.721,230.206,210.088,501.51,210.088,501.51C203.869,508.175,200.778,516.144,200.778,525.453C200.778,534.762,203.869,542.507,210.088,548.726C210.088,548.726,290.555,628.523,290.555,628.523C296.327,635.188,304.072,638.502,313.828,638.502C323.584,638.502,331.553,635.188,337.771,628.523C337.771,628.523,505.335,460.959,505.335,460.959C505.335,460.959,887.007,843.302,887.007,843.302C893.673,849.968,901.641,853.282,910.95,853.282C920.259,853.282,928.228,849.968,934.893,843.302C934.893,843.302,934.893,843.302,934.893,843.302" class="icon-check-square"/><glyph unicode="&#x0066;" d="M877.859,450.51C877.859,450.51,877.859,145.655,877.859,145.655C877.859,134.664,873.84,125.132,865.802,117.058C857.763,108.984,848.231,104.965,837.205,105C837.205,105,593.314,105,593.314,105C593.314,105,593.314,348.892,593.314,348.892C593.314,348.892,430.731,348.892,430.731,348.892C430.731,348.892,430.731,105,430.731,105C430.731,105,186.84,105,186.84,105C175.849,105,166.317,109.019,158.243,117.058C150.169,125.096,146.15,134.629,146.185,145.655C146.185,145.655,146.185,450.51,146.185,450.51C146.185,450.937,146.292,451.577,146.506,452.431C146.719,453.284,146.826,453.924,146.826,454.351C146.826,454.351,512.04,755.401,512.04,755.401C512.04,755.401,877.255,454.351,877.255,454.351C877.681,453.498,877.895,452.217,877.895,450.546C877.895,450.546,877.859,450.51,877.859,450.51M1019.492,494.33C1019.492,494.33,980.118,447.344,980.118,447.344C976.739,443.539,972.293,441.191,966.78,440.373C966.78,440.373,964.859,440.373,964.859,440.373C959.346,440.373,954.9,441.867,951.521,444.819C951.521,444.819,512.005,811.314,512.005,811.314C512.005,811.314,72.488,444.819,72.488,444.819C67.402,441.44,62.316,439.946,57.229,440.373C51.716,441.227,47.27,443.539,43.891,447.344C43.891,447.344,4.517,494.33,4.517,494.33C1.138,498.563,-0.356,503.542,0.071,509.269C0.498,514.995,2.81,519.548,7.043,522.927C7.043,522.927,463.703,903.365,463.703,903.365C477.254,914.355,493.331,919.868,511.969,919.868C530.607,919.868,546.684,914.355,560.235,903.365C560.235,903.365,715.206,773.79,715.206,773.79C715.206,773.79,715.206,897.638,715.206,897.638C715.206,903.578,717.127,908.451,720.932,912.257C724.738,916.062,729.611,917.983,735.551,917.983C735.551,917.983,857.514,917.983,857.514,917.983C863.454,917.983,868.327,916.062,872.133,912.257C875.939,908.451,877.859,903.578,877.859,897.638C877.859,897.638,877.859,638.488,877.859,638.488C877.859,638.488,1016.967,522.891,1016.967,522.891C1021.199,519.512,1023.547,514.96,1023.938,509.233C1024.329,503.507,1022.871,498.527,1019.492,494.294C1019.492,494.294,1019.492,494.33,1019.492,494.33" class="icon-pick"/><glyph unicode="&#x0067;" d="M393.907,157.775C393.907,136.031,386.223,117.491,370.819,102.088C355.416,86.684,336.877,79,315.133,79C293.389,79,274.85,86.684,259.446,102.088C244.043,117.491,236.358,136.031,236.358,157.775C236.358,179.519,244.043,198.058,259.446,213.461C274.85,228.865,293.389,236.549,315.133,236.549C336.877,236.549,355.416,228.865,370.819,213.461C386.223,198.058,393.907,179.519,393.907,157.775C393.907,157.775,393.907,157.775,393.907,157.775M945.26,157.775C945.26,136.031,937.576,117.491,922.172,102.088C906.769,86.684,888.23,79,866.486,79C844.742,79,826.202,86.684,810.799,102.088C795.396,117.491,787.711,136.031,787.711,157.775C787.711,179.519,795.396,198.058,810.799,213.461C826.202,228.865,844.742,236.549,866.486,236.549C888.23,236.549,906.769,228.865,922.172,213.461C937.576,198.058,945.26,179.519,945.26,157.775C945.26,157.775,945.26,157.775,945.26,157.775M1024,827.289C1024,827.289,1024,512.225,1024,512.225C1024,502.37,1020.727,493.652,1014.145,486.071C1007.563,478.49,999.155,474.079,988.92,472.838C988.92,472.838,346.491,397.751,346.491,397.751C346.905,394.891,347.835,390.48,349.248,384.518C350.661,378.557,351.901,373.147,352.935,368.219C353.969,363.291,354.486,358.777,354.486,354.676C354.486,348.095,349.558,334.966,339.702,315.289C339.702,315.289,905.838,315.289,905.838,315.289C916.486,315.289,925.722,311.395,933.544,303.607C941.366,295.819,945.26,286.584,945.226,275.902C945.191,265.219,941.297,255.984,933.544,248.196C925.791,240.409,916.555,236.515,905.838,236.515C905.838,236.515,275.711,236.515,275.711,236.515C265.063,236.515,255.828,240.409,248.006,248.196C240.183,255.984,236.289,265.219,236.324,275.902C236.324,281.657,238.564,289.755,243.078,300.196C247.592,310.637,253.623,322.87,261.238,336.826C268.854,350.782,273.058,358.605,273.85,360.224C273.85,360.224,164.924,866.642,164.924,866.642C164.924,866.642,39.387,866.642,39.387,866.642C28.739,866.642,19.504,870.536,11.682,878.324C3.86,886.112,-0.034,895.347,0,906.029C0.035,916.712,3.929,925.947,11.682,933.735C19.435,941.523,28.671,945.416,39.387,945.416C39.387,945.416,196.902,945.416,196.902,945.416C203.484,945.416,209.308,944.073,214.442,941.419C219.576,938.766,223.677,935.561,226.744,931.874C229.811,928.187,232.499,923.156,234.739,916.781C236.979,910.406,238.529,904.995,239.356,900.481C240.183,895.967,241.32,889.937,242.733,882.321C244.146,874.705,245.077,869.502,245.49,866.642C245.49,866.642,984.51,866.642,984.51,866.642C995.158,866.642,1004.393,862.748,1012.215,854.96C1020.037,847.172,1023.931,837.937,1023.897,827.255C1023.897,827.255,1024,827.289,1024,827.289" class="icon-cart"/><glyph unicode="&#x0068;" d="M589.97,782.114C589.97,782.114,782.001,590.082,782.001,590.082C782.001,590.082,434.418,242.499,434.418,242.499C434.418,242.499,242.386,434.53,242.386,434.53C242.386,434.53,589.97,782.114,589.97,782.114M461.744,187.166C461.744,187.166,837.3,562.722,837.3,562.722C844.991,570.413,848.837,579.533,848.837,590.082C848.837,600.631,844.991,609.751,837.3,617.442C837.3,617.442,617.33,837.413,617.33,837.413C610.047,844.695,600.927,848.337,589.97,848.337C579.012,848.337,569.892,844.695,562.609,837.413C562.609,837.413,187.053,461.857,187.053,461.857C179.362,454.166,175.517,445.046,175.517,434.496C175.517,423.947,179.362,414.827,187.053,407.136C187.053,407.136,407.024,187.166,407.024,187.166C414.306,179.883,423.426,176.242,434.384,176.242C445.342,176.242,454.462,179.883,461.744,187.166C461.744,187.166,461.744,187.166,461.744,187.166M1001.972,574.258C1001.972,574.258,450.82,22.494,450.82,22.494C435.813,7.487,417.505,0,395.828,0C374.151,0,355.842,7.487,340.835,22.494C340.835,22.494,264.267,99.062,264.267,99.062C286.965,121.76,298.297,149.29,298.297,181.721C298.297,214.151,286.965,241.682,264.267,264.38C241.569,287.078,214.039,298.41,181.608,298.41C149.178,298.41,121.647,287.078,98.949,264.38C98.949,264.38,22.994,340.948,22.994,340.948C7.987,355.955,0.5,374.263,0.5,395.94C0.5,417.617,7.987,435.926,22.994,450.933C22.994,450.933,574.146,1001.506,574.146,1001.506C589.153,1016.513,607.461,1024,629.138,1024C650.815,1024,669.124,1016.513,684.131,1001.506C684.131,1001.506,760.086,925.551,760.086,925.551C737.388,902.853,726.056,875.322,726.056,842.892C726.056,810.461,737.388,782.931,760.086,760.233C782.784,737.535,810.314,726.203,842.745,726.203C875.176,726.203,902.706,737.535,925.404,760.233C925.404,760.233,1001.972,684.277,1001.972,684.277C1016.979,669.27,1024.466,650.962,1024.466,629.285C1024.466,607.608,1016.979,589.299,1001.972,574.292C1001.972,574.292,1001.972,574.258,1001.972,574.258" class="icon-ticket"/><glyph unicode="&#x0069;" d="M787.695,138.135C787.695,148.784,783.801,158.02,776.012,165.843C768.224,173.665,758.988,177.56,748.305,177.525C737.622,177.491,728.386,173.597,720.598,165.843C712.809,158.089,708.915,148.853,708.915,138.135C708.915,127.418,712.809,118.182,720.598,110.428C728.386,102.674,737.622,98.78,748.305,98.745C758.988,98.711,768.224,102.605,776.012,110.428C783.801,118.251,787.695,127.487,787.695,138.135C787.695,138.135,787.695,138.135,787.695,138.135M945.255,138.135C945.255,148.784,941.36,158.02,933.572,165.843C925.784,173.665,916.548,177.56,905.865,177.525C895.182,177.491,885.946,173.597,878.157,165.843C870.369,158.089,866.475,148.853,866.475,138.135C866.475,127.418,870.369,118.182,878.157,110.428C885.946,102.674,895.182,98.78,905.865,98.745C916.548,98.711,925.784,102.605,933.572,110.428C941.36,118.251,945.255,127.487,945.255,138.135C945.255,138.135,945.255,138.135,945.255,138.135M1024,275.983C1024,275.983,1024,79.068,1024,79.068C1024,62.664,1018.245,48.707,1006.769,37.231C995.293,25.755,981.336,20,964.932,20C964.932,20,59.068,20,59.068,20C42.664,20,28.707,25.755,17.231,37.231C5.755,48.707,0,62.664,0,79.068C0,79.068,0,275.983,0,275.983C0,292.387,5.755,306.344,17.231,317.819C28.707,329.295,42.664,335.05,59.068,335.05C59.068,335.05,321.839,335.05,321.839,335.05C330.455,312.064,344.929,293.214,365.227,278.43C385.525,263.645,408.201,256.271,433.22,256.271C433.22,256.271,590.745,256.271,590.745,256.271C615.765,256.271,638.441,263.645,658.739,278.43C679.037,293.214,693.511,312.064,702.126,335.05C702.126,335.05,964.898,335.05,964.898,335.05C981.302,335.05,995.259,329.295,1006.735,317.819C1018.21,306.344,1023.966,292.387,1023.966,275.983C1023.966,275.983,1024,275.983,1024,275.983M824.018,674.776C817.022,658.372,804.926,650.17,787.695,650.17C787.695,650.17,630.17,650.17,630.17,650.17C630.17,650.17,630.17,374.475,630.17,374.475C630.17,363.826,626.276,354.59,618.487,346.767C610.699,338.945,601.463,335.05,590.78,335.085C590.78,335.085,433.255,335.085,433.255,335.085C422.606,335.085,413.37,338.979,405.547,346.767C397.724,354.556,393.83,363.792,393.865,374.475C393.865,374.475,393.865,650.17,393.865,650.17C393.865,650.17,236.34,650.17,236.34,650.17C219.109,650.17,207.012,658.372,200.017,674.776C193.021,690.766,195.916,704.93,208.632,717.233C208.632,717.233,484.327,992.928,484.327,992.928C491.702,1000.716,500.938,1004.61,512.034,1004.61C523.131,1004.61,532.367,1000.716,539.742,992.928C539.742,992.928,815.437,717.233,815.437,717.233C828.153,704.93,831.048,690.766,824.052,674.776C824.052,674.776,824.018,674.776,824.018,674.776" class="icon-add"/><glyph unicode="&#x006a;" d="M986.496,805.44C986.496,805.44,891.2,710.144,891.2,710.144C891.2,710.144,707.392,888.32,707.392,888.32C707.392,888.32,805.504,986.432,805.504,986.432C855.424,1036.416,936.512,1036.416,986.496,986.432C1036.48,936.512,1036.48,855.488,986.496,805.44C986.496,805.44,986.496,805.44,986.496,805.44M835.392,654.4C835.392,654.4,441.472,261.44,441.472,261.44C441.472,261.44,192,192,192,192C192,192,260.416,442.432,260.416,442.432C260.416,442.432,652.16,833.152,652.16,833.152C652.16,833.152,835.392,654.4,835.392,654.4C835.392,654.4,835.392,654.4,835.392,654.4M986.496,805.44C986.496,805.44,891.2,710.144,891.2,710.144C891.2,710.144,707.392,888.32,707.392,888.32C707.392,888.32,805.504,986.432,805.504,986.432C855.424,1036.416,936.512,1036.416,986.496,986.432C1036.48,936.512,1036.48,855.488,986.496,805.44C986.496,805.44,986.496,805.44,986.496,805.44M835.392,654.4C835.392,654.4,441.472,261.44,441.472,261.44C441.472,261.44,192,192,192,192C192,192,260.352,442.432,260.352,442.432C260.352,442.432,652.096,833.152,652.096,833.152C652.096,833.152,835.392,654.4,835.392,654.4C835.392,654.4,835.392,654.4,835.392,654.4M896,534.016C896,534.016,1024,661.952,1024,661.952C1024,661.952,1024,192,1024,192C1024,85.952,938.048,0,832,0C832,0,192,0,192,0C85.952,0,0,85.952,0,192C0,192,0,832,0,832C0,938.048,85.952,1024,192,1024C192,1024,661.888,1024,661.888,1024C661.888,1024,533.632,896,533.632,896C533.632,896,192,896,192,896C156.672,896,128,867.328,128,832C128,832,128,192,128,192C128,156.608,156.672,128,192,128C192,128,832,128,832,128C867.392,128,896,156.608,896,192C896,192,896,534.016,896,534.016C896,534.016,896,534.016,896,534.016" class="icon-write-one"/><glyph unicode="&#x006b;" d="M768,0C768,0,429.184,254.144,429.184,254.144C429.184,254.144,896,896,896,896C896,896,294.784,354.88,294.784,354.88C294.784,354.88,0,576,0,576C0,576,1024,1024,1024,1024C1024,1024,768,0,768,0C768,0,768,0,768,0M256,0C256,0,256,256,256,256C256,256,448,128,448,128C448,128,256,0,256,0C256,0,256,0,256,0" class="icon-add-one"/><glyph unicode="&#x006c;" d="M926.656,609.344C926.656,609.344,608.32,927.68,608.32,927.68C608.32,927.68,704,1024,704,1024C704,1024,1024,704,1024,704C1024,704,926.656,609.344,926.656,609.344C926.656,609.344,926.656,609.344,926.656,609.344M831.936,517.12C829.76,515.008,828.032,513.856,825.984,512C825.984,512,768,512,768,512C768,512,704,512,704,512C704,512,640,256,640,256C640,256,128,0,128,0C128,0,64,0,64,0C64,0,267.52,203.52,267.52,203.52C283.584,196.224,301.248,192,320,192C390.656,192,448,249.344,448,320C448,390.656,390.656,448,320,448C249.344,448,192,390.656,192,320C192,301.248,196.224,283.584,203.52,267.52C203.52,267.52,0,64,0,64C0,64,0,128,0,128C0,128,256,640,256,640C256,640,512,704,512,704C512,704,512,768,512,768C512,768,512,830.208,512,830.208C513.216,831.488,513.792,832.576,515.136,833.92C515.136,833.92,544.512,863.488,544.512,863.488C544.512,863.488,861.824,546.176,861.824,546.176C861.824,546.176,831.936,517.12,831.936,517.12C831.936,517.12,831.936,517.12,831.936,517.12" class="icon-write-two"/><glyph unicode="&#x006d;" d="M986.087,805.721C986.087,805.721,890.879,710.513,890.879,710.513C890.879,710.513,707.24,888.525,707.24,888.525C707.24,888.525,805.262,986.547,805.262,986.547C855.136,1036.484,936.149,1036.484,986.087,986.547C1036.025,936.673,1036.025,855.723,986.087,805.721C986.087,805.721,986.087,805.721,986.087,805.721M835.123,654.82C835.123,654.82,249.742,69.44,249.742,69.44C249.742,69.44,0.5,0,0.5,0C0.5,0,68.853,250.201,68.853,250.201C68.853,250.201,652.059,833.408,652.059,833.408C652.059,833.408,835.123,654.82,835.123,654.82C835.123,654.82,835.123,654.82,835.123,654.82" class="icon-write-three"/><glyph unicode="&#x006e;" d="M512,1024C299.968,1024,128,852.032,128,640C128,427.968,512,0,512,0C512,0,896,427.968,896,640C896,852.032,724.032,1024,512,1024C512,1024,512,1024,512,1024M512,384C370.624,384,256,498.624,256,640C256,781.376,370.624,896,512,896C653.376,896,768,781.376,768,640C768,498.624,653.376,384,512,384C512,384,512,384,512,384M512,768C441.344,768,384,710.656,384,640C384,569.344,441.344,512,512,512C582.656,512,640,569.344,640,640C640,710.656,582.656,768,512,768C512,768,512,768,512,768" class="icon-map-one"/><glyph unicode="&#x006f;" d="M102.9,0.5C84.161,0.5,65.524,5.62,49.038,15.758C18.932,34.497,0.5,67.367,0.5,102.9C0.5,102.9,0.5,922.1,0.5,922.1C0.5,957.633,18.932,990.606,49.038,1009.242C65.524,1019.278,84.161,1024.5,102.9,1024.5C118.465,1024.5,134.337,1020.916,148.673,1013.748C148.673,1013.748,967.873,604.148,967.873,604.148C1002.586,586.74,1024.5,551.31,1024.5,512.5C1024.5,473.69,1002.586,438.158,967.873,420.852C967.873,420.852,148.673,11.252,148.673,11.252C134.337,4.084,118.465,0.5,102.9,0.5C102.9,0.5,102.9,0.5,102.9,0.5" class="icon-play-one"/><glyph unicode="&#x0070;" d="M990.233,0C990.233,0,34.5,0,34.5,0C34.5,123.494,178.952,226.645,375.833,260.369C375.833,260.369,375.833,310.886,375.833,310.886C294.596,358.263,239.3,445.303,239.3,546.133C239.3,546.133,239.3,553.028,239.3,553.028C199.705,567.228,171.033,604.092,171.033,648.533C171.033,692.975,199.705,729.839,239.3,744.038C239.3,744.038,239.3,750.933,239.3,750.933C239.3,901.734,361.566,1024,512.367,1024C663.168,1024,785.433,901.734,785.433,750.933C785.433,750.933,785.433,744.038,785.433,744.038C825.028,729.839,853.7,692.975,853.7,648.533C853.7,604.092,825.028,567.228,785.433,553.028C785.433,553.028,785.433,546.133,785.433,546.133C785.433,445.303,730.137,358.263,648.9,310.955C648.9,310.955,648.9,260.437,648.9,260.437C845.849,226.645,990.233,123.494,990.233,0C990.233,0,990.233,0,990.233,0" class="icon-user-one"/><glyph unicode="&#x0071;" d="M1011.851,825.701C1011.851,825.701,699.618,511.566,699.618,511.566C699.618,511.566,1011.851,199.299,1011.851,199.299C1024.921,186.263,1024.921,165.112,1011.851,152.042C1011.851,152.042,870.078,10.303,870.078,10.303C857.075,-2.768,835.925,-2.768,822.854,10.303C822.854,10.303,511.131,322.027,511.131,322.027C511.131,322.027,201.274,10.303,201.274,10.303C188.237,-2.768,167.087,-2.768,154.016,10.303C154.016,10.303,12.277,152.042,12.277,152.042C-0.759,165.112,-0.759,186.263,12.277,199.299C12.277,199.299,322.134,511.023,322.134,511.023C322.134,511.023,12.311,820.846,12.311,820.846C-0.725,833.882,-0.725,855.033,12.311,868.103C12.311,868.103,154.05,1009.842,154.05,1009.842C167.087,1022.913,188.237,1022.913,201.308,1009.842C201.308,1009.842,510.587,700.563,510.587,700.563C510.587,700.563,822.888,1014.697,822.888,1014.697C835.959,1027.768,857.109,1027.768,870.112,1014.697C870.112,1014.697,1011.885,872.958,1011.885,872.958C1024.887,859.888,1024.887,838.737,1011.851,825.701C1011.851,825.701,1011.851,825.701,1011.851,825.701" class="icon-times-one"/><glyph unicode="&#x0072;" d="M512,1024C229.216,1024,0,794.752,0,512C0,229.248,229.216,0,512,0C794.784,0,1024,229.248,1024,512C1024,794.752,794.784,1024,512,1024C512,1024,512,1024,512,1024M512,832C547.328,832,576,803.328,576,768C576,732.672,547.328,704,512,704C476.672,704,448,732.672,448,768C448,803.328,476.672,832,512,832C512,832,512,832,512,832M352,256C352,256,448,320,448,320C448,320,512,320,512,320C512,320,512,576,512,576C512,576,448,576,448,576C448,576,416,640,416,640C416,640,576,640,576,640C576,640,576,320,576,320C576,320,640,320,640,320C640,320,736,256,736,256C736,256,352,256,352,256C352,256,352,256,352,256" class="icon-info"/><glyph unicode="&#x0073;" d="M0,0C0,0,0,96,0,96C0,239.488,180.768,293.728,419.168,315.584C366.816,348.032,325.728,439.232,304.32,512.064C304.224,512.064,304.128,512,304,512C301.824,512,256,569.312,256,640C256,702.016,251.584,753.728,288.224,765.44C288.192,766.304,288,767.136,288,768C288,846.624,328.672,915.52,389.984,955.488C405.824,995.008,454.112,1024,512,1024C569.888,1024,618.176,995.008,634.016,955.488C695.328,915.52,736,846.624,736,768C736,767.136,735.808,766.304,735.776,765.44C772.416,753.728,768,702.016,768,640C768,569.312,717.184,512,720,512C719.872,512,719.776,512.064,719.68,512.064C698.272,439.264,657.184,348.032,604.832,315.584C843.232,293.728,1024,241.504,1024,96C1024,96,1024,0,1024,0C1024,0,0,0,0,0C0,0,0,0,0,0" class="icon-user-two"/><glyph unicode="&#x0074;" d="M478.365,512.361C478.365,550.05,465.045,582.214,438.376,608.884C411.707,635.553,379.542,648.872,341.853,648.872C304.164,648.872,272,635.553,245.331,608.884C218.661,582.214,205.342,550.05,205.342,512.361C205.342,474.672,218.661,442.507,245.331,415.838C272,389.169,304.164,375.85,341.853,375.85C379.542,375.85,411.707,389.169,438.376,415.838C465.045,442.507,478.365,474.672,478.365,512.361C478.365,512.361,478.365,512.361,478.365,512.361M887.929,239.308C887.929,257.794,881.179,273.802,867.651,287.301C854.122,300.8,838.144,307.549,819.658,307.579C801.172,307.609,785.194,300.829,771.666,287.301C758.137,273.772,751.388,257.765,751.388,239.308C751.388,220.464,758.047,204.396,771.397,191.047C784.746,177.697,800.814,171.038,819.658,171.038C838.503,171.038,854.57,177.697,867.92,191.047C881.269,204.396,887.929,220.464,887.929,239.308C887.929,239.308,887.929,239.308,887.929,239.308M887.929,785.414C887.929,803.9,881.179,819.907,867.651,833.406C854.122,846.905,838.144,853.654,819.658,853.684C801.172,853.714,785.194,846.935,771.666,833.406C758.137,819.878,751.388,803.87,751.388,785.414C751.388,766.569,758.047,750.502,771.397,737.152C784.746,723.803,800.814,717.143,819.658,717.143C838.503,717.143,854.57,723.803,867.92,737.152C881.269,750.502,887.929,766.569,887.929,785.414C887.929,785.414,887.929,785.414,887.929,785.414M683.147,560.891C683.147,560.891,683.147,462.218,683.147,462.218C683.147,458.664,681.892,455.2,679.414,451.825C676.935,448.451,674.068,446.599,670.872,446.211C670.872,446.211,588.207,433.399,588.207,433.399C584.295,420.945,578.62,407.446,571.154,392.872C583.249,375.82,599.227,355.362,619.147,331.53C621.626,327.976,622.88,324.423,622.88,320.869C622.88,316.598,621.626,313.223,619.147,310.745C610.964,300.083,596.3,284.165,575.156,263.021C554.012,241.877,540.065,231.304,533.286,231.275C529.374,231.275,525.64,232.529,522.087,235.008C522.087,235.008,460.745,283,460.745,283C447.574,276.251,433.896,270.726,419.681,266.455C415.768,228.049,411.677,200.484,407.406,183.79C404.927,175.248,399.582,170.978,391.399,170.978C391.399,170.978,292.218,170.978,292.218,170.978C288.306,170.978,284.752,172.322,281.556,174.98C278.361,177.638,276.569,180.773,276.211,184.327C276.211,184.327,263.936,265.918,263.936,265.918C251.841,269.472,238.521,274.997,223.948,282.463C223.948,282.463,161.023,235.008,161.023,235.008C158.544,232.529,154.99,231.275,150.361,231.275C146.449,231.275,142.716,232.708,139.162,235.545C87.974,282.821,62.38,311.282,62.38,320.869C62.38,324.064,63.634,327.439,66.113,330.993C69.667,335.98,76.954,345.388,87.974,359.245C98.994,373.102,107.326,383.943,113.03,391.767C104.847,407.416,98.635,421.99,94.365,435.489C94.365,435.489,13.312,448.301,13.312,448.301C9.758,448.66,6.712,450.362,4.233,453.378C1.754,456.395,0.5,459.859,0.5,463.771C0.5,463.771,0.5,562.444,0.5,562.444C0.5,565.998,1.754,569.462,4.233,572.837C6.712,576.212,9.579,578.063,12.774,578.451C12.774,578.451,95.44,591.263,95.44,591.263C99.352,603.717,105.026,617.216,112.493,631.79C100.397,648.843,84.42,669.3,64.5,693.132C62.021,697.044,60.767,700.598,60.767,703.794C60.767,708.064,62.021,711.618,64.5,714.455C72.325,725.117,86.899,740.945,108.222,761.91C129.545,782.875,143.582,793.358,150.361,793.388C154.273,793.388,158.006,792.133,161.56,789.654C161.56,789.654,222.902,741.662,222.902,741.662C234.997,748.053,248.675,753.727,263.966,758.715C267.878,797.121,271.97,824.507,276.241,840.843C278.719,849.384,284.065,853.654,292.248,853.654C292.248,853.654,391.429,853.654,391.429,853.654C395.341,853.654,398.895,852.311,402.09,849.653C405.286,846.995,407.078,843.859,407.436,840.305C407.436,840.305,419.71,758.715,419.71,758.715C431.806,755.161,445.125,749.636,459.699,742.17C459.699,742.17,522.624,789.625,522.624,789.625C525.461,792.103,529.015,793.358,533.286,793.358C537.198,793.358,540.931,791.924,544.485,789.087C595.673,741.811,621.267,713.35,621.267,703.764C621.267,700.568,620.013,697.193,617.534,693.64C613.263,687.935,605.797,678.349,595.136,664.85C584.474,651.351,576.47,640.689,571.124,632.865C579.307,615.812,585.34,601.238,589.252,589.143C589.252,589.143,670.305,576.869,670.305,576.869C673.859,576.152,676.905,574.27,679.384,571.254C681.863,568.238,683.117,564.773,683.117,560.861C683.117,560.861,683.147,560.891,683.147,560.891M1024.47,276.639C1024.47,276.639,1024.47,201.977,1024.47,201.977C1024.47,196.273,997.98,190.778,945,185.432C940.73,175.846,935.414,166.588,928.993,157.688C947.121,117.52,956.199,92.971,956.199,84.101C956.199,82.698,955.483,81.444,954.079,80.368C910.686,55.133,888.646,42.5,887.959,42.5C885.122,42.5,876.939,50.862,863.44,67.556C849.941,84.251,840.683,96.346,835.696,103.812C828.588,103.095,823.242,102.737,819.688,102.737C816.134,102.737,810.788,103.095,803.681,103.812C798.693,96.346,789.465,84.251,775.936,67.556C762.408,50.862,754.255,42.5,751.417,42.5C750.701,42.5,728.661,55.133,685.297,80.368C683.893,81.444,683.177,82.698,683.177,84.101C683.177,92.971,692.255,117.52,710.383,157.688C703.992,166.558,698.647,175.816,694.376,185.432C641.396,190.778,614.906,196.273,614.906,201.977C614.906,201.977,614.906,276.639,614.906,276.639C614.906,282.343,641.396,287.838,694.376,293.184C699.005,303.487,704.321,312.745,710.383,320.928C692.255,361.096,683.177,385.645,683.177,394.515C683.177,395.919,683.893,397.173,685.297,398.248C686.701,398.965,692.942,402.519,703.962,408.91C714.983,415.301,725.495,421.333,735.44,427.038C745.385,432.742,750.731,435.579,751.447,435.579C754.284,435.579,762.467,427.306,775.966,410.791C789.465,394.276,798.723,382.27,803.71,374.804C810.818,375.521,816.164,375.879,819.718,375.879C823.272,375.879,828.618,375.521,835.725,374.804C853.853,400.04,870.219,419.96,884.793,434.534C884.793,434.534,887.989,435.609,887.989,435.609C889.392,435.609,911.432,423.155,954.109,398.278C955.513,397.203,956.229,395.948,956.229,394.545C956.229,385.675,947.15,361.126,929.023,320.958C935.085,312.775,940.401,303.517,945.03,293.214C998.01,287.868,1024.5,282.373,1024.5,276.669C1024.5,276.669,1024.47,276.639,1024.47,276.639M1024.47,822.745C1024.47,822.745,1024.47,748.083,1024.47,748.083C1024.47,742.379,997.98,736.884,945,731.538C940.73,721.951,935.414,712.693,928.993,703.794C947.121,663.626,956.199,639.077,956.199,630.207C956.199,628.803,955.483,627.549,954.079,626.474C910.686,601.238,888.646,588.605,887.959,588.605C885.122,588.605,876.939,596.968,863.44,613.662C849.941,630.356,840.683,642.451,835.696,649.918C828.588,649.201,823.242,648.843,819.688,648.843C816.134,648.843,810.788,649.201,803.681,649.918C798.693,642.451,789.465,630.356,775.936,613.662C762.408,596.968,754.255,588.605,751.417,588.605C750.701,588.605,728.661,601.238,685.297,626.474C683.893,627.549,683.177,628.803,683.177,630.207C683.177,639.077,692.255,663.626,710.383,703.794C703.992,712.663,698.647,721.921,694.376,731.538C641.396,736.884,614.906,742.379,614.906,748.083C614.906,748.083,614.906,822.745,614.906,822.745C614.906,828.449,641.396,833.944,694.376,839.29C699.005,849.593,704.321,858.851,710.383,867.034C692.255,907.202,683.177,931.751,683.177,940.62C683.177,942.024,683.893,943.278,685.297,944.353C686.701,945.07,692.942,948.624,703.962,955.015C714.983,961.406,725.495,967.439,735.44,973.143C745.385,978.847,750.731,981.684,751.447,981.684C754.284,981.684,762.467,973.412,775.966,956.897C789.465,940.381,798.723,928.376,803.71,920.91C810.818,921.626,816.164,921.985,819.718,921.985C823.272,921.985,828.618,921.626,835.725,920.91C853.853,946.145,870.219,966.065,884.793,980.639C884.793,980.639,887.989,981.714,887.989,981.714C889.392,981.714,911.432,969.261,954.109,944.383C955.513,943.308,956.229,942.054,956.229,940.65C956.229,931.78,947.15,907.232,929.023,867.064C935.085,858.881,940.401,849.623,945.03,839.319C998.01,833.974,1024.5,828.479,1024.5,822.774C1024.5,822.774,1024.47,822.745,1024.47,822.745" class="icon-engine"/><glyph unicode="&#x0075;" d="M219.424,402.576C219.424,422.768,212.288,439.984,197.984,454.288C183.68,468.592,166.464,475.728,146.272,475.728C126.08,475.728,108.864,468.592,94.56,454.288C80.256,439.984,73.12,422.768,73.12,402.576C73.12,382.384,80.256,365.168,94.56,350.864C108.864,336.56,126.08,329.424,146.272,329.424C166.464,329.424,183.68,336.56,197.984,350.864C212.288,365.168,219.424,382.384,219.424,402.576C219.424,402.576,219.424,402.576,219.424,402.576M329.152,658.576C329.152,678.768,322.016,695.984,307.712,710.288C293.408,724.592,276.192,731.728,256,731.728C235.808,731.728,218.592,724.592,204.288,710.288C189.984,695.984,182.848,678.768,182.848,658.576C182.848,638.384,189.984,621.168,204.288,606.864C218.592,592.56,235.808,585.424,256,585.424C276.192,585.424,293.408,592.56,307.712,606.864C322.016,621.168,329.152,638.384,329.152,658.576C329.152,658.576,329.152,658.576,329.152,658.576M573.728,383.696C573.728,383.696,631.456,601.968,631.456,601.968C633.728,611.856,632.32,621.104,627.168,629.68C622.016,638.256,614.688,643.888,605.152,646.544C595.616,649.2,586.464,647.984,577.728,642.832C568.992,637.68,563.264,630.16,560.576,620.272C560.576,620.272,502.848,402,502.848,402C480,400.112,459.616,391.824,441.696,377.136C423.776,362.448,411.776,343.696,405.696,320.848C398.08,291.504,401.888,263.696,417.12,237.424C432.352,211.152,454.624,194.192,483.968,186.576C513.312,178.96,541.12,182.768,567.392,198C593.664,213.232,610.624,235.504,618.24,264.848C624.352,287.696,623.2,309.968,614.816,331.696C606.432,353.424,592.704,370.736,573.664,383.696C573.664,383.696,573.728,383.696,573.728,383.696M950.848,402.576C950.848,422.768,943.712,439.984,929.408,454.288C915.104,468.592,897.888,475.728,877.696,475.728C857.504,475.728,840.288,468.592,825.984,454.288C811.68,439.984,804.544,422.768,804.544,402.576C804.544,382.384,811.68,365.168,825.984,350.864C840.288,336.56,857.504,329.424,877.696,329.424C897.888,329.424,915.104,336.56,929.408,350.864C943.712,365.168,950.848,382.384,950.848,402.576C950.848,402.576,950.848,402.576,950.848,402.576M585.152,768.272C585.152,788.464,578.016,805.68,563.712,819.984C549.408,834.288,532.192,841.424,512,841.424C491.808,841.424,474.592,834.288,460.288,819.984C445.984,805.68,438.848,788.464,438.848,768.272C438.848,748.08,445.984,730.864,460.288,716.56C474.592,702.256,491.808,695.12,512,695.12C532.192,695.12,549.408,702.256,563.712,716.56C578.016,730.864,585.152,748.08,585.152,768.272C585.152,768.272,585.152,768.272,585.152,768.272M841.152,658.576C841.152,678.768,834.016,695.984,819.712,710.288C805.408,724.592,788.192,731.728,768,731.728C747.808,731.728,730.592,724.592,716.288,710.288C701.984,695.984,694.848,678.768,694.848,658.576C694.848,638.384,701.984,621.168,716.288,606.864C730.592,592.56,747.808,585.424,768,585.424C788.192,585.424,805.408,592.56,819.712,606.864C834.016,621.168,841.152,638.384,841.152,658.576C841.152,658.576,841.152,658.576,841.152,658.576M1024,402.576C1024,303.152,997.152,211.152,943.424,126.576C936.192,115.536,925.92,110,912.576,110C912.576,110,111.424,110,111.424,110C98.08,110,87.808,115.536,80.576,126.576C26.848,210.768,0,302.768,0,402.576C0,471.92,13.536,538.192,40.576,601.424C67.616,664.656,104,719.12,149.728,764.848C195.456,810.576,249.92,846.96,313.152,874C376.384,901.04,442.656,914.576,512,914.576C581.344,914.576,647.616,901.04,710.848,874C774.08,846.96,828.544,810.576,874.272,764.848C920,719.12,956.384,664.656,983.424,601.424C1010.464,538.192,1024,471.92,1024,402.576C1024,402.576,1024,402.576,1024,402.576" class="icon-dashboard"/><glyph unicode="&#x0076;" d="M786.693,749.614C786.693,749.614,237.307,749.614,237.307,749.614C106.249,749.614,0,643.365,0,512.307C0,512.307,0,512.307,0,512.307C0,381.249,106.249,275,237.307,275C237.307,275,786.693,275,786.693,275C917.751,275,1024,381.249,1024,512.307C1024,512.307,1024,512.307,1024,512.307C1024,643.365,917.751,749.614,786.693,749.614C786.693,749.614,786.693,749.614,786.693,749.614M237.307,322.489C132.501,322.489,47.489,407.501,47.489,512.307C47.489,617.112,132.501,702.125,237.307,702.125C342.112,702.125,427.125,617.112,427.125,512.307C427.125,407.501,342.112,322.489,237.307,322.489C237.307,322.489,237.307,322.489,237.307,322.489" class="icon-turnoff"/><glyph unicode="&#x0077;" d="M786.693,749.614C786.693,749.614,237.307,749.614,237.307,749.614C106.249,749.614,0,643.365,0,512.307C0,512.307,0,512.307,0,512.307C0,381.249,106.249,275,237.307,275C237.307,275,786.693,275,786.693,275C917.751,275,1024,381.249,1024,512.307C1024,512.307,1024,512.307,1024,512.307C1024,643.365,917.751,749.614,786.693,749.614C786.693,749.614,786.693,749.614,786.693,749.614M786.693,322.489C681.888,322.489,596.875,407.501,596.875,512.307C596.875,617.112,681.888,702.125,786.693,702.125C891.499,702.125,976.511,617.112,976.511,512.307C976.511,407.501,891.499,322.489,786.693,322.489C786.693,322.489,786.693,322.489,786.693,322.489" class="icon-turnon"/><glyph unicode="&#x0078;" d="M157.992,166.691C157.992,166.691,311.99,166.691,311.99,166.691C311.99,166.691,311.99,629.355,311.99,629.355C311.99,629.355,157.992,629.355,157.992,629.355C157.992,629.355,157.992,166.691,157.992,166.691C157.992,166.691,157.992,166.691,157.992,166.691M321.995,772.004C321.547,795.113,313.558,814.227,297.99,829.347C282.422,844.467,261.777,852.008,235.98,852.008C210.183,852.008,189.202,844.467,172.963,829.347C156.723,814.227,148.622,795.113,148.622,772.004C148.622,749.343,156.499,730.341,172.291,714.997C188.082,699.653,208.615,692,233.964,692C233.964,692,234.636,692,234.636,692C260.881,692,281.974,699.653,297.953,714.997C313.931,730.341,321.92,749.343,321.958,772.004C321.958,772.004,321.995,772.004,321.995,772.004M711.973,166.691C711.973,166.691,865.97,166.691,865.97,166.691C865.97,166.691,865.97,432.015,865.97,432.015C865.97,500.446,849.731,552.226,817.289,587.356C784.846,622.486,741.951,640.033,688.64,640.033C628.198,640.033,581.756,614.049,549.314,562.045C549.314,562.045,550.658,562.045,550.658,562.045C550.658,562.045,550.658,629.393,550.658,629.393C550.658,629.393,396.66,629.393,396.66,629.393C398.004,600.049,398.004,445.828,396.66,166.728C396.66,166.728,550.658,166.728,550.658,166.728C550.658,166.728,550.658,425.407,550.658,425.407C550.658,442.318,552.226,454.75,555.325,462.739C562.007,478.307,572.012,491.523,585.34,502.424C598.668,513.325,615.132,518.776,634.657,518.776C686.213,518.776,711.973,483.87,711.973,414.095C711.973,414.095,711.973,166.765,711.973,166.765C711.973,166.765,711.973,166.691,711.973,166.691M1024,831.998C1024,831.998,1024,192.002,1024,192.002C1024,139.102,1005.222,93.892,967.665,56.335C930.108,18.778,884.898,0,831.998,0C831.998,0,192.002,0,192.002,0C139.102,0,93.892,18.778,56.335,56.335C18.778,93.892,0,139.102,0,192.002C0,192.002,0,831.998,0,831.998C0,884.898,18.778,930.108,56.335,967.665C93.892,1005.222,139.102,1024,192.002,1024C192.002,1024,831.998,1024,831.998,1024C884.898,1024,930.108,1005.222,967.665,967.665C1005.222,930.108,1024,884.898,1024,831.998C1024,831.998,1024,831.998,1024,831.998" class="icon-linkedinsquare"/><glyph unicode="&#x0079;" d="M233.178,683.592C233.178,683.592,233.178,23,233.178,23C233.178,23,13.192,23,13.192,23C13.192,23,13.192,683.592,13.192,683.592C13.192,683.592,233.178,683.592,233.178,683.592C233.178,683.592,233.178,683.592,233.178,683.592M247.177,887.601C247.625,855.161,236.388,828.022,213.505,806.259C190.622,784.495,160.497,773.595,123.166,773.595C123.166,773.595,121.823,773.595,121.823,773.595C85.388,773.595,56.047,784.495,33.836,806.259C11.624,828.022,0.5,855.161,0.5,887.601C0.5,920.489,11.96,947.702,34.844,969.279C57.727,990.856,87.628,1001.644,124.51,1001.607C161.392,1001.569,190.958,990.818,213.169,969.279C235.381,947.739,246.729,920.526,247.177,887.601C247.177,887.601,247.177,887.601,247.177,887.601M1024.463,401.638C1024.463,401.638,1024.463,23,1024.463,23C1024.463,23,805.149,23,805.149,23C805.149,23,805.149,376.291,805.149,376.291C805.149,422.954,796.152,459.5,778.159,485.967C760.166,512.434,732.057,525.649,693.831,525.649C665.833,525.649,642.39,517.996,623.501,502.654C604.612,487.311,590.501,468.31,581.169,445.651C576.278,432.324,573.852,414.331,573.852,391.671C573.852,391.671,573.852,23.037,573.852,23.037C573.852,23.037,354.538,23.037,354.538,23.037C355.434,200.355,355.882,344.113,355.882,454.348C355.882,564.584,355.658,630.36,355.21,651.675C355.21,651.675,354.538,683.667,354.538,683.667C354.538,683.667,573.852,683.667,573.852,683.667C573.852,683.667,573.852,587.691,573.852,587.691C573.852,587.691,572.508,587.691,572.508,587.691C581.393,601.914,590.501,614.345,599.834,625.021C609.166,635.698,621.709,647.27,637.5,659.701C653.29,672.132,672.627,681.8,695.51,688.706C718.394,695.612,743.853,699.047,771.85,699.047C847.854,699.047,908.964,673.812,955.178,623.379C1001.393,572.946,1024.5,499.033,1024.5,401.713C1024.5,401.713,1024.463,401.638,1024.463,401.638" class="icon-linkedin"/></font>
</defs>
</svg>
